Торрент файл
скачать торрент магнет ссылка Добавлен: 02 мар 2016, 00:58
Размер: 1.46 ГБ
Сидеров: 362
Личеров: 33
Статус: (salma3)
Автор

СообщениеДобавлено: 02 мар 2016, 00:58 

Не в сети
Супермодератор
Аватара пользователя
Дата регистрации:
15 фев 2012, 16:44
Возраст: 28
Спасибо: 6594 / 2145
Сообщения: 44275
Год выпуска: 2015
Страна: Испания
Жанр: комедия

Перевод: Дубляж - [iTunes]
Продолжительность: 01:26:34

Режиссер: Хосе Корбачо , Хуан Крус
В ролях: Росси де Пальма (Mercè), Лола Дуэньяс (Nuria), Карлос Аресес (Paco), Рубен Очандиано (Carlos), Иманоль Ариас (Benemérita), Аида Фольч (Laura), Эрнесто Альтерио (José María), Роберто Аламо (Guillermo), Нурия Гаго (Sara), Miki Esparbé (Ramiro), Сарас Хиль (Miyako), Karim Ait M'Hand (André)



Описание:
В канун нового года пассажирский поезд терпит аварию и застревает на пустынном участке. Время неумолимо движется к полуночи, а помощи все нет. Пассажиры теряют последнюю надежду встретить праздник в кругу своих близких. Уныние сменяется отчаянием и подозрительностью. Всем начинает казаться, что один из путешественников - опасный преступник, вынашивающий кошмарные планы...





Качество: WEB-DLRip-AVC
Формат: MKV
Видео: AVC, 1024x428 (2.40:1), 2028 kbps, 24 fps, 0,193 bpp
Аудио: русский / AC3 / 5.1 / 48 kHz / 384 kbps / 16 bit


Релиз от: by schultz
General
Unique ID : 237171991475528385097214131825365988131 (0xB26DA9FE371D0710B09FFAD33D8FB323)
Complete name : D:downloadOtriv.2O15.WEB-DLRip-AVC by schultz R.G.Resident.mkv
Format : Matroska
Format version : Version 2
File size : 1.46 GiB
Duration : 1h 26mn
Overall bit rate : 2 413 Kbps
Encoded date : UTC 2016-03-01 08:50:25
Writing application : mkvmerge v7.8.0 ('River Man') 32bit built on Apr 3 2015 12:11:22
Writing library : libebml v1.3.1 + libmatroska v1.4.2
Video
ID : 1
Format : AVC
Format/Info : Advanced Video Codec
Format profile : High@L4.1
Format settings, CABAC : Yes
Format settings, ReFrames : 12 frames
Codec ID : V_MPEG4/ISO/AVC
Duration : 1h 26mn
Bit rate : 2 028 Kbps
Width : 1 024 pixels
Height : 428 pixels
Display aspect ratio : 2.40:1
Frame rate : 24.000 fps
Color space : YUV
Chroma subsampling : 4:2:0
Bit depth : 8 bits
Scan type : Progressive
Bits/(Pixel*Frame) : 0.193
Stream size : 1.20 GiB (82%)
Writing library : x264 core 146 r2538 121396c
Encoding settings : cabac=1 / ref=12 / deblock=1:-3:-3 / analyse=0x3:0x113 / me=umh / subme=11 / psy=1 / psy_rd=1.00:0.00 / mixed_ref=1 / me_range=48 / chroma_me=1 / trellis=2 / 8x8dct=1 / cqm=0 / deadzone=21,11 / fast_pskip=0 / chroma_qp_offset=-2 / threads=12 / lookahead_threads=3 / sliced_threads=0 / nr=0 / decimate=1 / interlaced=0 / bluray_compat=0 / constrained_intra=0 / bframes=13 / b_pyramid=2 / b_adapt=2 / b_bias=0 / direct=3 / weightb=1 / open_gop=0 / weightp=2 / keyint=240 / keyint_min=23 / scenecut=40 / intra_refresh=0 / rc_lookahead=40 / rc=2pass / mbtree=1 / bitrate=2028 / ratetol=1.0 / qcomp=0.60 / qpmin=0 / qpmax=69 / qpstep=4 / cplxblur=20.0 / qblur=0.5 / vbv_maxrate=14000 / vbv_bufsize=14000 / nal_hrd=none / filler=0 / ip_ratio=1.40 / aq=1:1.00
Default : Yes
Forced : No
Audio
ID : 2
Format : AC-3
Format/Info : Audio Coding 3
Mode extension : CM (complete main)
Codec ID : A_AC3
Duration : 1h 26mn
Bit rate mode : Constant
Bit rate : 384 Kbps
Channel(s) : 6 channels
Channel positions : Front: L C R, Side: L R, LFE
Sampling rate : 48.0 KHz
Bit depth : 16 bits
Compression mode : Lossy
Stream size : 238 MiB (16%)
Language : Russian
Default : Yes
Forced : No



_________________
Проголосуй за трекер Открытый торрент трекер - RUS-MEDIA.ORG

Проголосуй Открытый торрент трекер - RUS-MEDIA.ORG



реклама партнёра


Вернуться к началу
 Профиль Отправить личное сообщение  
 
   Похожие торренты   Автор   Торрент   Размер 
В этой теме нет новых непрочитанных сообщений. Новогодний отрыв / Incidencias [Комедия, 2015] WEB-DLRip, Dub

Dracon

5175 | 306

1.37 ГБ

В этой теме нет новых непрочитанных сообщений. Новогодний отрыв / Incidencias [Комедия, 2015] WEB-DL 1080p, Dub

Dracon

251 | 10

3.19 ГБ

В этой теме нет новых непрочитанных сообщений. Суперфорсаж! / Superfast! [комедия, 2015] WEB-DLRip-AVC, Dub [iTunes]

salma3

103 | 7

1.71 ГБ

В этой теме нет новых непрочитанных сообщений. Superнянь 2 / Babysitting 2 [комедия, 2015] WEB-DLRip-AVC Dub [iTunes]

salma3

344 | 20

1.46 ГБ

В этой теме нет новых непрочитанных сообщений. Новогодний парад звёзд & Новогодний голубой огонёк 2016 (Россия) [Поп, ТВ-Шоу, Концерт, 2015-2016] HDTVRip 1080i

Dracon

107 | 61

31.66 ГБ

В этой теме нет новых непрочитанных сообщений. Про Любовь (Анна Меликян) [комедия, 2015] WEB-DLRip [iTunes]

Dracon

11957 | 682

1.37 ГБ

В этой теме нет новых непрочитанных сообщений. Простушка / The DUFF (Эри Сандел) [комедия, 2015] WEB-DLRip, Dub [iTunes]

Dracon

6132 | 187

1.46 ГБ


Начать новую тему Ответить на тему  [ 1 сообщение ] 




Для Мосгорсуда, Роскомнадзора и рекламодателей:: mosgorsud-torrent[собачка]yandex.ru