Торрент файл
скачать торрент магнет ссылка Добавлен: 01 мар 2016, 21:14
Размер: 1.45 ГБ
Сидеров: 2
Личеров: 1
Статус: (salma3)
Автор

СообщениеДобавлено: 01 мар 2016, 21:14 

Не в сети
Супермодератор
Аватара пользователя
Дата регистрации:
15 фев 2012, 16:44
Возраст: 27
Спасибо: 5130 / 2089
Сообщения: 17350
Страна: США
Жанр: Триллер, мелодрама , детектив , эротика
Год выпуска: 1990
Продолжительность: 1:47:55

Перевод: Авторский (одноголосый закадровый) Ю.Живов
Режиссер: Нико Масторакис / Nico Mastorakis

В ролях: Джефф Лестер
Эдриэнн Сакс, Марк Сингер, Брайан Томпсон, Шэннон Твид, Джон Бек, Типпи Хедрен, Дэвид Соул, Джек Келер, Стюарт Бёрд

Описание: Модного фотографа Скотта начинают мучить ночные кошмары, в которых он убивает красивую девушку. Вскоре он встречает красотку из своих снов наяву, и, влюбившись в неё, начинает бояться, что с ней может произойти что-то непоправимое.

Доп. информация: За звуковую дорожку огромная благодарность Evil ED 86

Сэмпл: https://www.sendspace.com/file/8c6zb1

Качество видео: DVDRip
Формат видео: AVI
Видео: XviD ,720x384 (1.85:1) ,25.000 fps ,1 726 Kbps
Аудио: AC3 , 48 kHz , 192.00 kbps avg , 2/0 (L,R) ch
Complete name Под покровом ночи 1990.avi
Format : AVI
Format/Info : Audio Video Interleave
File size : 1.45 GiB
Duration : 1h 47mn
Overall bit rate : 1 928 Kbps
Writing application : VirtualDubMod 1.5.10.3 | http://www.virtualdub-fr.org || (build 2550/release)
Writing library : VirtualDub build 35491/release

Video
ID : 0
Format : MPEG-4 Visual
Format profile : Advanced Simple@L5
Format settings, BVOP : 1
Format settings, QPel : No
Format settings, GMC : No warppoints
Format settings, Matrix : Custom
Codec ID : XVID
Codec ID/Hint : XviD
Duration : 1h 47mn
Bit rate : 1 726 Kbps
Width : 720 pixels
Height : 384 pixels
Display aspect ratio : 1.85:1
Frame rate : 25.000 fps
Color space : YUV
Chroma subsampling : 4:2:0
Bit depth : 8 bits
Scan type : Progressive
Compression mode : Lossy
Bits/(Pixel*Frame) : 0.250
Stream size : 1.30 GiB (90%)
Writing library : XviD 73

Audio
ID : 1
Format : AC-3
Format/Info : Audio Coding 3
Mode extension : CM (complete main)
Format settings, Endianness : Big
Codec ID : 2000
Duration : 1h 47mn
Bit rate mode : Constant
Bit rate : 192 Kbps
Channel(s) : 2 channels
Channel positions : Front: L R
Sampling rate : 48.0 KHz
Frame rate : 31.250 fps (1536 spf)
Compression mode : Lossy
Stream size : 148 MiB (10%)
Alignment : Aligned on interleaves
Interleave, duration : 40 ms (1.00 video frame)
Interleave, preload duratio : 512 ms


_________________



реклама партнёра


Вернуться к началу
 Профиль Отправить личное сообщение  
 
   Похожие торренты   Автор   Торрент   Размер 
В этой теме нет новых непрочитанных сообщений. Кто там в ночи / Чужак в ночи / Ночной незнакомец / Stranger by Night [триллер, 1994] DVDRip, Mvo

salma3

4 | 4

703 МБ

В этой теме нет новых непрочитанных сообщений. Под покровом ночи / Nocturna [ужасы, триллер, 2015] HDRip, Avo

salma3

43 | 3

1.22 ГБ

В этой теме нет новых непрочитанных сообщений. Под покровом ночи отсосала куму хуй [2014 г., Amateur, CamRip]

Dievas

46 | 5

147.72 МБ

В этой теме нет новых непрочитанных сообщений. Сестринство ночи / The Sisterhood of Night (Кэрин Вэйчтер) [триллер, драма, детектив, 2014] WEB-DLRip, dvo

Dracon

503 | 16

1.44 ГБ

В этой теме нет новых непрочитанных сообщений. Ночной незнакомец / Чужак в ночи / Stranger by Night [триллер, 1994] DVDRip, Mvo

salma3

7 | 4

1.34 ГБ

В этой теме нет новых непрочитанных сообщений. Пропавшая в ночи / Gone in the Night [драма, 1996] DVDRip, Avo

salma3

21 | 6

2.87 ГБ

В этой теме нет новых непрочитанных сообщений. Секс на две ночи / Two Night Stand (Макс Николс) [Мелодрама, Комедия, 2014] HDRip, Mvo [Лицензия]

Dracon

725 | 34

1.35 ГБ


Начать новую тему Ответить на тему  [ 1 сообщение ] 




Для Мосгорсуда, Роскомнадзора и рекламодателей:: mosgorsud-torrent[собачка]yandex.ru