Торрент файл
скачать торрент магнет ссылка Добавлен: 01 мар 2016, 13:00
Размер: 1.39 ГБ
Сидеров: 874
Личеров: 51
Статус: (salma3)
Автор

СообщениеДобавлено: 01 мар 2016, 13:00 

Не в сети
Супермодератор
Аватара пользователя
Дата регистрации:
15 фев 2012, 16:44
Возраст: 27
Спасибо: 5135 / 2089
Сообщения: 17406
Тёмная паутина / Darkweb

Год выпуска: 2016
Жанр: боевик, триллер
Режиссер: Бруно Вассенат / Bruno Vaussenat

В ролях: Оливье Грюнер, Дэнни Гловер, Тони Харрисон, Ибрахима Кейта, Винсент Паризи, Тристан Робин и др.

Описание: Оказывается кроме хорошо знакомого нам интернета существует огромная паутина, где вертятся огромные деньги и идет своя жизнь. Слышали ли вы о Тёмной паутине? Это сетевые сегменты, вообще не подключённые к сети Интернет... Таинственные люди создали садистскую группу, похищая молодых девушек для участия в охоте на индюшек в качестве добычи, при этом они снимают всё на видео. Миллионеры, жаждущие крови, должны купить право на просмотр в темной паутине. Каков же исход охоты?

Страна: Франция
Продолжительность: 01:29:39
Перевод: Одноголосый [закадровый] Васька Куролесов по субтитрам [Enigma]

Файл
Качество: HDRip
Формат файла: AVI
Видео кодек: XviD
Аудио кодек: AC3
Видео: XviD, 1830 Кбит/с, 720x304, 24.000 fps
Аудио: AC-3, 6 ch, 384 Кбит/с, 48.0 KHz


Сэмпл: http://multi-up.com/1089553

General
Complete name : G:\Darkweb.2016.HDRip_KypoJIecoB.avi
Format : AVI
Format/Info : Audio Video Interleave
File size : 1.39 GiB
Duration : 1h 29mn
Overall bit rate : 2 223 Kbps

Video
ID : 0
Format : MPEG-4 Visual
Format profile : Advanced Simple@L5
Format settings, BVOP : 2
Format settings, QPel : No
Format settings, GMC : No warppoints
Format settings, Matrix : Default (H.263)
Codec ID : XVID
Codec ID/Hint : XviD
Duration : 1h 29mn
Bit rate : 1 830 Kbps
Width : 720 pixels
Height : 304 pixels
Display aspect ratio : 2.35:1
Frame rate : 24.000 fps
Color space : YUV
Chroma subsampling : 4:2:0
Bit depth : 8 bits
Scan type : Progressive
Compression mode : Lossy
Bits/(Pixel*Frame) : 0.348
Stream size : 1.15 GiB (82%)
Writing library : XviD 66

Audio
ID : 1
Format : AC-3
Format/Info : Audio Coding 3
Mode extension : CM (complete main)
Format settings, Endianness : Big
Codec ID : 2000
Duration : 1h 29mn
Bit rate mode : Constant
Bit rate : 384 Kbps
Channel(s) : 6 channels
Channel positions : Front: L C R, Side: L R, LFE
Sampling rate : 48.0 KHz
Compression mode : Lossy
Stream size : 246 MiB (17%)
Alignment : Split accross interleaves
Interleave, duration : 42 ms (1.00 video frame)
Interleave, preload duratio : 500 ms


Релиз:


_________________



реклама партнёра


Вернуться к началу
 Профиль Отправить личное сообщение  
 
   Похожие торренты   Автор   Торрент   Размер 
В этой теме нет новых непрочитанных сообщений. Темная дорога / Black Road [фантастика, триллер, 2016] HDRip, Avo

salma3

75 | 2

1.24 ГБ

В этой теме нет новых непрочитанных сообщений. Тёмная материя / Dark Matter / 2 сезон 1-13 серия из 13 [фантастика, триллер, драма, 2016] WEB-DLRip, Mvo [LostFilm]

salma3

444 | 435

7.06 ГБ

В этой теме нет новых непрочитанных сообщений. Паутина-9 [Серия 1-24 из 24] [Детектив, криминал, 2016] SATRip

Dracon

491 | 206

14.81 ГБ

В этой теме нет новых непрочитанных сообщений. Темная бухта / Dark Cove [ужасы, триллер, 2015] HDRip, Avo

salma3

116 | 8

1.13 ГБ

В этой теме нет новых непрочитанных сообщений. Тёмная вода / Dark Water [ужасы, триллер, драма, 2005] HDRip, Dub

salma3

136 | 11

1.45 ГБ

В этой теме нет новых непрочитанных сообщений. Поклонник / Fan [боевик, триллер, драма, 2016] HDRip, Mvo

salma3

84 | 13

2.18 ГБ

В этой теме нет новых непрочитанных сообщений. Конец ствола / End of a Gun [боевик, триллер, 2016] HDRip, Mvo

salma3

1745 | 653

1.37 ГБ


Начать новую тему Ответить на тему  [ 1 сообщение ] 




Для Мосгорсуда, Роскомнадзора и рекламодателей:: mosgorsud-torrent[собачка]yandex.ru