Торрент файл
скачать торрент магнет ссылка Добавлен: 01 мар 2016, 12:42
Размер: 1.37 ГБ
Сидеров: 3
Личеров: 1
Статус: (salma3)
Автор

СообщениеДобавлено: 01 мар 2016, 12:42 

Не в сети
Супермодератор
Аватара пользователя
Дата регистрации:
15 фев 2012, 16:44
Возраст: 28
Спасибо: 6399 / 2128
Сообщения: 37514
Сингапурская петля / Петля затягивается в Сингапуре / Singapore Sling

Год выпуска: 1993
Жанр: триллер, драма
Режиссер: Роберт Маршан / Robert Marchand

В ролях: Джон Уотерс, Буркхард Хеиль, Деборра-Ли Фёрнесс, Ян-Майкл Винсент, Энди Андерсон, Пол Чабб, Брюс Венаблс, Ганди МакИнтайр, Патриция Стефенсон, Радж Сидху

Описание: Аннотация от alenavova
Некая мафиозная организация поставляет в Сингапур поддельные лекарства, от которых умирают дети - жертвы эпидемии. По ее следу идет спецагент Стэнфорд, расследующий смерть другого агента Сэма, работавшего на медицинскую корпорацию. Врач Энни, влюбленная в Стэнфорда, пытается ему помочь, проникнув в секретные файлы корпорации, но следы ведут к ее бывшему мужу Билли, вроде бы погибшему при пожаре. Люди Билли похищают Энни, но Стэнфорд бесстрашно бросает вызов многочисленным негодяям...

Страна: Австралия
Продолжительность: 01:29:28
Перевод: Авторский (одноголосый закадровый) [Андрей Дольский]
Cубтитры: нидерландские

Файл
Качество: VHSRip
Формат файла: AVI
Видео кодек: XviD
Аудио кодек: AC3
Видео: 704x528 (1.33:1), 25 fps, XviD build 73 ~1983 kbps avg, 0.21 bit/pixel
Аудио: 48 kHz, AC3 Dolby Digital, 2/0 (L,R) ch, ~192 kbps


Сэмпл: https://yadi.sk/i/fHDB5_jUpZc8R

Формат субтитров: hardsub (неотключаемые)
Сингапурская петля - Singapore Sling [by alenavova].avi
Format : AVI
Format/Info : Audio Video Interleave
File size : 1.37 GiB
Duration : 1h 29mn
Overall bit rate : 2 185 Kbps
Movie name : Сингапурская петля - Singapore Sling [by alenavova]
Director : by alenavova
Writing application : VirtualDubMod 1.5.10.3 | http://www.virtualdub-fr.org || (build 2550/release)
Copyright : Edich2
Comment : RuTracker.org

Video
ID : 0
Format : MPEG-4 Visual
Format profile : Advanced Simple@L5
Format settings, BVOP : 1
Format settings, QPel : No
Format settings, GMC : No warppoints
Format settings, Matrix : Custom
Codec ID : XVID
Codec ID/Hint : XviD
Duration : 1h 29mn
Bit rate : 1 984 Kbps
Width : 704 pixels
Height : 528 pixels
Display aspect ratio : 4:3
Frame rate : 25.000 fps
Color space : YUV
Chroma subsampling : 4:2:0
Bit depth : 8 bits
Scan type : Progressive
Compression mode : Lossy
Bits/(Pixel*Frame) : 0.213
Stream size : 1.24 GiB (91%)
Writing library : XviD 73

Audio
ID : 1
Format : AC-3
Format/Info : Audio Coding 3
Mode extension : CM (complete main)
Format settings, Endianness : Big
Codec ID : 2000
Duration : 1h 29mn
Bit rate mode : Constant
Bit rate : 192 Kbps
Channel(s) : 2 channels
Channel positions : Front: L R
Sampling rate : 48.0 KHz
Frame rate : 31.250 fps (1536 spf)
Compression mode : Lossy
Stream size : 123 MiB (9%)
Alignment : Split accross interleaves
Interleave, duration : 40 ms (1.00 video frame)
Interleave, preload duratio : 500 ms
Доп. информация: Оцифровка VHS (личный архив) и получение VHSRip alenavova

Эксклюзив для rutracker.org. При размещении данного релиза на других сайтах ссылка на автора alenavova обязательна.

Релиз


_________________
Проголосуй за трекер Открытый торрент трекер - RUS-MEDIA.ORG

Проголосуй Открытый торрент трекер - RUS-MEDIA.ORG



реклама партнёра


Вернуться к началу
 Профиль Отправить личное сообщение  
 
   Похожие торренты   Автор   Торрент   Размер 
В этой теме нет новых непрочитанных сообщений. Петля (Мирас Толеуханов) [2013, триллер, драма, криминал, WEBRip | Director’s cut]

Nickolas3435

544 | 24

1.46 ГБ

В этой теме нет новых непрочитанных сообщений. Петля / Hurok [фантастика, триллер, криминал, 2016] WEB-DLRip, Mvo

salma3

1023 | 193

1.36 ГБ

В этой теме нет новых непрочитанных сообщений. Петля / Hurok (Иштван Мадарас / Isti Madarász) [2016 г., Венгрия, фантастика, триллер, криминал, WEBRip 720p] sub

Alfredovich

1 | 2

865.39 МБ

В этой теме нет новых непрочитанных сообщений. Петля Нестерова [01-08 из 08] (Илья Казанков) [Криминал, детектив, 2015] WEB-DLRip

Dracon

933 | 125

5.46 ГБ

В этой теме нет новых непрочитанных сообщений. Петля Пристрастия - Гипнопедия [2011, Post-punk, indie-rock, MP3]

PriZraK

0 | 2

102.41 МБ

В этой теме нет новых непрочитанных сообщений. Петля Нестерова [01-08 из 08] (Илья Казанков) [Криминал, детектив, 2015] WEB-DL 720p

Dracon

90 | 23

9.68 ГБ

В этой теме нет новых непрочитанных сообщений. Петля Нестерова [01-08 из 08] (Илья Казанков) [Криминал, детектив, 2015] HDTVRip

Dracon

107 | 21

5.67 ГБ


Начать новую тему Ответить на тему  [ 1 сообщение ] 




Для Мосгорсуда, Роскомнадзора и рекламодателей:: mosgorsud-torrent[собачка]yandex.ru