Торрент файл
скачать торрент магнет ссылка Добавлен: 29 фев 2016, 20:48
Размер: 1.46 ГБ
Сидеров: 75
Личеров: 2
Статус: (salma3)
Автор

СообщениеДобавлено: 29 фев 2016, 20:48 

Не в сети
Супермодератор
Аватара пользователя
Дата регистрации:
15 фев 2012, 16:44
Возраст: 27
Спасибо: 5143 / 2090
Сообщения: 17514
Робот по имени Чаппи / Chappie

Год выхода: 2015
Жанр: Боевик, Фантастика
Режиссер: Нил Бломкамп

Актеры: Шарлто Копли, Дев Патель, Ниндзя, Йоланди Фиссер, Хосе Пабло Кантильо, Хью Джекман, Сигурни Уивер, Брэндон Оре, Джонни Селема, Андерсон Купер

Описание:
Чаппи - вундеркинд. Как и любой другой ребенок, он попадает под влияние своего окружения, и только его сердце и душа помогут ему найти свой путь. Но есть одна вещь, которая делает Чаппи непохожим на всех остальных: он – первый робот, способный чувствовать и думать.



Производство: США, Мексика
Продолжительность: 02:00:19
Перевод: Авторский (одноголосый, закадровый) [А.Гаврилов]

Файл
Качество: HDRip
Формат файла: AVI
Видео кодек: XviD
Аудио кодек: AC3
Видео: XviD, 720x304 (2.35:1), 23.976 fps, 1 283 Kbps (0.245 bit/pixel)
Аудио: AC-3, 48.0 KHz, 6 ch, 448 Kbps, CBR


Формат : AVI
Формат/Информация : Audio Video Interleave
Размер файла : 1,46 Гбайт
Продолжительность : 2 ч. 0 м.
Общий поток : 1741 Кбит/сек
Программа кодирования : VirtualDubMod 1.5.10.3 | www.virtualdub-fr.org || (build 2550/release)
Библиотека кодирования : VirtualDubMod build 2550/release
Видео
Идентификатор : 0
Формат : MPEG-4 Visual
Профиль формата : Advanced Simple@L5
Параметр BVOP формата : 1
Параметр QPel формата : Нет
Параметр GMC формата : Без точки перехода
Параметр матрицы формата : Выборочная
Идентификатор кодека : XVID
Идентификатор кодека/Подсказка : XviD
Продолжительность : 2 ч. 0 м.
Битрейт : 1283 Кбит/сек
Ширина : 720 пикселей
Высота : 304 пикселя
Соотношение сторон : 2,35:1
Частота кадров : 23,976 кадра/сек
Цветовое пространство : YUV
Субдискретизация насыщенности : 4:2:0
Битовая глубина : 8 бит
Тип развёртки : Прогрессивная
Метод сжатия : С потерями
Бит/(Пиксели*Кадры) : 0.245
Размер потока : 1,08 Гбайт (74%)
Библиотека кодирования : XviD 73
Аудио
Идентификатор : 1
Формат : AC-3
Формат/Информация : Audio Coding 3
Расширение режима : CM (complete main)
Параметр Endianness формата : Big
Идентификатор кодека : 2000
Продолжительность : 2 ч. 0 м.
Вид битрейта : Постоянный
Битрейт : 448 Кбит/сек
Каналы : 6 каналов
Расположение каналов : Front: L C R, Side: L R, LFE
Частота : 48,0 КГц
Битовая глубина : 16 бит
Метод сжатия : С потерями
Размер потока : 386 Мбайт (26%)
Выравнивание : Разделение по промежуткам
Продолжительность промежутка : 42 мс. (1,00 видеокадр)
Время предзагрузки промежутка : 500 мс.

Релиз от: FAGOT100 (NNM-CLUB)


_________________



реклама партнёра


Вернуться к началу
 Профиль Отправить личное сообщение  
 
   Похожие торренты   Автор   Торрент   Размер 
В этой теме нет новых непрочитанных сообщений. Робот по имени Чаппи / Chappie (Нил Бломкамп) [фантастика, боевик, триллер, 2015] HDRip, Dub [iTunes]

Dracon

5709 | 144

1.37 ГБ

В этой теме нет новых непрочитанных сообщений. Робот по имени Чаппи / Chappie (Нил Бломкамп) [фантастика, боевик, триллер, 2015] WEB-DL 1080p, Dub [iTunes]

Марик

1146 | 37

4.16 ГБ

В этой теме нет новых непрочитанных сообщений. Робот по имени Чаппи / Chappie (Нил Бломкамп) [фантастика, боевик, триллер, 2015] BDRip, Dub [лицензия]

Dracon

228 | 24

1.46 ГБ

В этой теме нет новых непрочитанных сообщений. Робот по имени Чаппи / Chappie (Нил Бломкамп) [фантастика, боевик, триллер, 2015] WEB-DL 720p, Dub+Sub [iTunes]

Dracon

5 | 0

3.98 ГБ

В этой теме нет новых непрочитанных сообщений. Робот по имени Чаппи / Chappie (Нил Бломкамп) [фантастика, боевик, триллер, 2015] BDRip-AVC, Dub+Sub [лицензия]

Dracon

175 | 6

2.17 ГБ

В этой теме нет новых непрочитанных сообщений. Робот по имени Чаппи / Chappie (Нил Бломкамп) [фантастика, боевик, триллер, 2015] BDRip, Dub [Лицензия]

Dracon

386 | 79

2.05 ГБ

В этой теме нет новых непрочитанных сообщений. Робот по имени Чаппи / Chappie (Нил Бломкамп) [фантастика, боевик, триллер, 2015] BDRip 1080p, Dub+Sub [iTunes]

Dracon

315 | 24

23.99 ГБ


Начать новую тему Ответить на тему  [ 1 сообщение ] 




Для Мосгорсуда, Роскомнадзора и рекламодателей:: mosgorsud-torrent[собачка]yandex.ru