Торрент файл
скачать торрент магнет ссылка Добавлен: 29 фев 2016, 06:56
Размер: 2.18 ГБ
Сидеров: 478
Личеров: 29
Статус: (salma3)
Автор

СообщениеДобавлено: 29 фев 2016, 06:56 

Не в сети
Супермодератор
Аватара пользователя
Дата регистрации:
06 июн 2014, 07:51
Спасибо: 577 / 0
Сообщения: 2002
Мёд в голове / Honig im Kopf

Перевод: Профессиональный (многоголосый, закадровый) FocusStudio, субтитры: отсутствуют
Формат: BDRip-AVC, MKV, H.264, AC3
Страна: Германия
Режиссер: Тиль Швайгер
Жанр: драма, комедия, приключения
Продолжительность: 02:19:04
Год выпуска: 2014
В ролях: Эмма Швайгер, Дитер Халлерворден, Тиль Швайгер, Паскуале Алеарди, Белинда Буш, Клаудио Кайоло, Дэна Цебулла

Описание: История 11-летней Тильды, которая просто обожает своего дедушку Амандуса. Когда тому диагностируют болезнь Альцгеймера, а родители, по ее мнению, хотят избавиться от него, сдав в дом престарелых, она берет ситуацию в свои руки и сбегает вместе с дедом в сказочную Венецию. Город выбран неслучайно. Ведь почти полвека назад Амандус сделал там предложение руки и сердца бабушке Тильды. Теперь внучка надеется, что оказавшись там, деду станет лучше, и он хоть что-нибудь вспомнит.



Видео: 1024x436 (2.35:1), 23.976 fps, AVC MPEG-4 (H.264), ~1858 kbps, 0.174 bit/pixel
Аудио: 48 kHz, AC3 Dolby Digital, 3/2 (L,C,R,l,r) + LFE ch, ~384 kbps

General
Unique ID : 208064018464780691134456130225025140949 (0x9C87AC1F3365C0BDAF55BB8AF62948D5)
Complete name : D:downloadHonig.im.Kopf.2014.BDRip-AVC by schultz R.G.Resident.mkv
Format : Matroska
Format version : Version 2
File size : 2.18 GiB
Duration : 2h 19mn
Overall bit rate : 2 243 Kbps
Encoded date : UTC 2016-02-24 16:27:45
Writing application : mkvmerge v7.8.0 ('River Man') 32bit built on Apr 3 2015 12:11:22
Writing library : libebml v1.3.1 + libmatroska v1.4.2

Video
ID : 1
Format : AVC
Format/Info : Advanced Video Codec
Format profile :
Format settings, CABAC : Yes
Format settings, ReFrames : 12 frames
Codec ID : V_MPEG4/ISO/AVC
Duration : 2h 19mn
Bit rate : 1 858 Kbps
Width : 1 024 pixels
Height : 436 pixels
Display aspect ratio : 2.35:1
Frame rate : 23.976 fps
Color space : YUV
Chroma subsampling : 4:2:0
Bit depth : 8 bits
Scan type : Progressive
Bits/(Pixel*Frame) : 0.174
Stream size : 1.76 GiB (81%)
Writing library : x264 core 146 r2538 121396c
Encoding settings : cabac=1 / ref=12 / deblock=1:-3:-3 / analyse=0x3:0x113 / me=umh / subme=11 / psy=1 / psy_rd=1.00:0.00 / mixed_ref=1 / me_range=48 / chroma_me=1 / trellis=2 / 8x8dct=1 / cqm=0 / deadzone=21,11 / fast_pskip=0 / chroma_qp_offset=-2 / threads=12 / lookahead_threads=3 / sliced_threads=0 / nr=0 / decimate=1 / interlaced=0 / bluray_compat=0 / constrained_intra=0 / bframes=13 / b_pyramid=2 / b_adapt=2 / b_bias=0 / direct=3 / weightb=1 / open_gop=0 / weightp=2 / keyint=240 / keyint_min=23 / scenecut=40 / intra_refresh=0 / rc_lookahead=40 / rc=2pass / mbtree=1 / bitrate=1858 / ratetol=1.0 / qcomp=0.60 / qpmin=0 / qpmax=69 / qpstep=4 / cplxblur=20.0 / qblur=0.5 / vbv_maxrate=14000 / vbv_bufsize=14000 / nal_hrd=none / filler=0 / ip_ratio=1.40 / aq=1:1.00
Default : Yes
Forced : No

Audio
ID : 2
Format : AC-3
Format/Info : Audio Coding 3
Mode extension : CM (complete main)
Codec ID : A_AC3
Duration : 2h 19mn
Bit rate mode : Constant
Bit rate : 384 Kbps
Channel(s) : 6 channels
Channel positions : Front: L C R, Side: L R, LFE
Sampling rate : 48.0 KHz
Bit depth : 16 bits
Compression mode : Lossy
Stream size : 382 MiB (17%)
Default : Yes
Forced : No





реклама партнёра


Вернуться к началу
 Профиль Отправить личное сообщение  
 
   Похожие торренты   Автор   Торрент   Размер 
В этой теме нет новых непрочитанных сообщений. Мёд в Голове / Honig im Kopf (Тиль Швайгер) [2014, Драма, комедия, приключения, семейный, HDRip] avo

Dracon

777 | 47

2.17 ГБ

В этой теме нет новых непрочитанных сообщений. Мёд в голове / Honig im Kopf [драма, комедия, приключения, семейный, 2014] BDRip, Mvo

salma3

150 | 1

1.47 ГБ

В этой теме нет новых непрочитанных сообщений. Приключения мистера Пибоди и Шермана / Mr. Peabody & Sherman [Мультфильм, Фантастика, Комедия, Приключения, Семейный, 2014] BDRip 720p, Dub+Sub [Blu-ray CEE]

Dracon

5 | 2

6.43 ГБ

В этой теме нет новых непрочитанных сообщений. Приключения мистера Пибоди и Шермана / Mr. Peabody & Sherman [Мультфильм, Фантастика, Комедия, Приключения, Семейный, 2014] BDRip 1080p, Dub+Sub [Blu-ray CEE]

Dracon

104 | 8

8.54 ГБ

В этой теме нет новых непрочитанных сообщений. Путешествие Гектора в поисках счастья / Hector and the Search for Happiness (Питер Челсом) [Драма, комедия, приключения, 2014] BDRip 720p, Dub [iTunes]

Dracon

22 | 6

4.68 ГБ

В этой теме нет новых непрочитанных сообщений. Приключения мистера Пибоди и Шермана / Mr. Peabody & Sherman [Мультфильм, фантастика, комедия, приключения, семейный, 2014] BDRip 720p, Dub [iTunes]

Dracon

79 | 4

4.21 ГБ

В этой теме нет новых непрочитанных сообщений. Приключения мистера Пибоди и Шермана / Mr. Peabody & Sherman [Мультфильм, Фантастика, Комедия, Приключения, Семейный, 2014] BDRip 1080p, Dub+Sub [iTunes | 3D-Video]

Dracon

35 | 3

6.34 ГБ


Начать новую тему Ответить на тему  [ 1 сообщение ] 




Для Мосгорсуда, Роскомнадзора и рекламодателей:: mosgorsud-torrent[собачка]yandex.ru