Торрент файл
скачать торрент магнет ссылка Добавлен: 29 фев 2016, 06:56
Размер: 3 ГБ
Сидеров: 3960
Личеров: 122
Статус: (salma3)
Автор

СообщениеДобавлено: 29 фев 2016, 06:56 

Не в сети
Супермодератор
Аватара пользователя
Дата регистрации:
06 июн 2014, 07:51
Спасибо: 577 / 0
Сообщения: 2002
Крампус / Krampus

Перевод: Профессиональный (полное дублирование) iTunes
Субтитры: Отсутствуют
Формат: WEB-DLRip-AVC, MKV, H.264, AC3
Страна: США, Новая Зеландия
Режиссер: Майкл Догерти
Жанр: ужасы, фэнтези, комедия
Продолжительность: 01:37:40
Год выпуска: 2015
В ролях: Адам Скотт, Тони Коллетт, Дэвид Кокнер, Эллисон Толман, Кончата Феррелл, Эмджей Энтони, Стефания Оуэн, Криста Штадлер, Марк Аткин, Тревор Пау

Описание: История о демоне, который во время Рождества выискивает непослушных детей, чтобы наказать их.



Видео: 1280x532 (2.40:1), 23.976 fps, AVC MPEG-4 (H.264), ~3930 kbps, 0.241 bit/pixel
Аудио: 48 kHz, AC3 Dolby Digital, 3/2 (L,C,R,l,r) + LFE ch, ~384 kbps

Format : Matroska
Format version : Version 2
File size : 3.00 GiB
Duration : 1h 37mn
Overall bit rate : 4 402 Kbps
Encoded date : UTC 2016-02-24 19:06:09
Writing application : mkvmerge v8.3.0 ('Over the Horizon') 64bit
Writing library : libebml v1.3.1 + libmatroska v1.4.2
DURATION : 01:37:40.832000000
NUMBER_OF_FRAMES : 183151
NUMBER_OF_BYTES : 281319936
_STATISTICS_WRITING_APP : mkvmerge v8.3.0 ('Over the Horizon') 64bit
_STATISTICS_WRITING_DATE_UTC : 2016-02-24 19:06:09
_STATISTICS_TAGS : BPS DURATION NUMBER_OF_FRAMES NUMBER_OF_BYTES

Video
ID : 1
Format : AVC
Format/Info : Advanced Video Codec
Format profile :
Format settings, CABAC : No
Format settings, ReFrames : 2 frames
Codec ID : V_MPEG4/ISO/AVC
Duration : 1h 37mn
Bit rate : 3 930 Kbps
Width : 1 280 pixels
Height : 532 pixels
Display aspect ratio : 2.40:1
Frame rate mode : Constant
Frame rate : 23.976 fps
Color space : YUV
Chroma subsampling : 4:2:0
Bit depth : 8 bits
Scan type : Progressive
Bits/(Pixel*Frame) : 0.241
Stream size : 2.68 GiB (89%)
Language : English
Default : Yes
Forced : No
Color range : Limited
Color primaries : BT.709
Transfer characteristics : BT.709
Matrix coefficients : BT.709

Audio
ID : 2
Format : AC-3
Format/Info : Audio Coding 3
Mode extension : CM (complete main)
Format settings, Endianness : Big
Codec ID : A_AC3
Duration : 1h 37mn
Bit rate mode : Constant
Bit rate : 384 Kbps
Channel(s) : 6 channels
Channel positions : Front: L C R, Side: L R, LFE
Sampling rate : 48.0 KHz
Bit depth : 16 bits
Compression mode : Lossy
Stream size : 268 MiB (9%)
Language : Russian
Default : Yes
Forced : No

Menu
00:00:00.000 : en:глава 1
00:03:21.000 : en:глава 2
00:07:18.000 : en:глава 3
00:14:20.000 : en:глава 4
00:20:03.000 : en:глава 5
00:27:28.000 : en:глава 6
00:34:17.000 : en:глава 7
00:37:46.000 : en:глава 8
00:42:03.000 : en:глава 9
00:45:13.000 : en:глава 10
00:50:31.000 : en:глава 11
00:56:08.000 : en:глава 12
01:00:26.000 : en:глава 13
01:05:36.000 : en:глава 14
01:10:00.000 : en:глава 15
01:14:40.000 : en:глава 16
01:18:32.000 : en:глава 17
01:23:19.000 : en:глава 18
01:27:41.000 : en:глава 19
01:32:28.000 : en:глава 20





реклама партнёра


Вернуться к началу
 Профиль Отправить личное сообщение  
 
   Похожие торренты   Автор   Торрент   Размер 
В этой теме нет новых непрочитанных сообщений. Крампус / Krampus (Майкл Догерти) [2015, ужасы, фэнтези, комедия, WEB-DLRip-AVC] Dub

Nickolas3435

673 | 19

1.46 ГБ

В этой теме нет новых непрочитанных сообщений. Крампус: Рождественский дьявол / Krampus: The Christmas Devil [ужасы, боевик, триллер, 2013] HDRip, Avo

salma3

218 | 18

1.46 ГБ

В этой теме нет новых непрочитанных сообщений. Жильцы / The Inhabitants (Майкл Расмуссен, Шон Расмуссен) [2015, ужасы, триллер, WEB-DLRip] dvo

PriZraK

581 | 25

1.45 ГБ

В этой теме нет новых непрочитанных сообщений. Древние / The Originals [03х01-16 из 22] (Джозеф Морган, Дэниэл Гиллис, Чарльз Майкл Дэвис) [2015, Ужасы, фантастика, боевик, драма, вампиры, WEB-DLRip | LostFilm]

Dracon

94 | 288

5.65 ГБ

В этой теме нет новых непрочитанных сообщений. Древние / The Originals [03х01-05 из 22] (Джозеф Морган, Дэниэл Гиллис, Чарльз Майкл Дэвис) [2015, Ужасы, фантастика, боевик, драма, вампиры, WEB-DLRip | LostFilm]

Nickolas3435

358 | 887

2.33 ГБ

В этой теме нет новых непрочитанных сообщений. От А до Я / A to Z [s01] (Майкл Патрик Джэнн, Стив Пинк) [2014-2015, комедия, WEB-DLRip | AlexFilm]

Nickolas3435

58 | 20

3.23 ГБ

В этой теме нет новых непрочитанных сообщений. Гримм / Grimm [S01-04] [Ужасы, фантастика, фэнтези, 2011-2015] WEB-DLRip, Mvo [LostFilm]

salma3

231 | 394

45.07 ГБ


Начать новую тему Ответить на тему  [ 1 сообщение ] 




Для Мосгорсуда, Роскомнадзора и рекламодателей:: mosgorsud-torrent[собачка]yandex.ru