Торрент файл
скачать торрент магнет ссылка Добавлен: 29 фев 2016, 06:56
Размер: 1.46 ГБ
Сидеров: 760
Личеров: 36
Статус: (salma3)
Автор

СообщениеДобавлено: 29 фев 2016, 06:56 

Не в сети
Супермодератор
Аватара пользователя
Дата регистрации:
06 июн 2014, 07:51
Спасибо: 619 / 0
Сообщения: 2001
Рождество / The Night Before

Перевод: Профессиональный (многоголосый, закадровый) iTunes, субтитры : отсутствуют
Формат: BDRip, MKV, H.264, AC3
Страна: США
Режиссер: Джонатан Левин
Жанр: комедия
Продолжительность: 01:41:16
Год выпуска: 2015
В ролях: Джозеф Гордон-Левитт, Сет Роген, Энтони Маки, Джиллиан Белл, Лиззи Каплан, Майкл Шеннон, Хелен Йорк, Илана Глейзер, Аарон Хилл, Трэйси Морган

Описание: История о веселых приключениях трех старых друзей, отправившихся на поиски лучшей рождественской вечеринки в Нью-Йорке…



Видео: 1024x428 (2.40:1), 23.976 fps, AVC MPEG-4 (H.264), ~1678 kbps, 0.160 bit/pixel
Аудио: 48 kHz, AC3 Dolby Digital, 3/2 (L,C,R,l,r) + LFE ch, ~384 kbps

General
Unique ID : 195235419769674140960138373036947031196 (0x92E0F95F88068B92BC26A5D04238449C)
Complete name : D:The.Night.Before.2015.BDRip-AVC by schultz R.G.Resident.mkv
Format : Matroska
Format version : Version 2
File size : 1.46 GiB
Duration : 1h 41mn
Overall bit rate : 2 064 Kbps
Encoded date : UTC 2016-02-22 12:13:36
Writing application : mkvmerge v7.8.0 ('River Man') 32bit built on Apr 3 2015 12:11:22
Writing library : libebml v1.3.1 + libmatroska v1.4.2

Video
ID : 1
Format : AVC
Format/Info : Advanced Video Codec
Format profile :
Format settings, CABAC : Yes
Format settings, ReFrames : 12 frames
Codec ID : V_MPEG4/ISO/AVC
Duration : 1h 41mn
Bit rate : 1 678 Kbps
Width : 1 024 pixels
Height : 428 pixels
Display aspect ratio : 2.40:1
Frame rate : 23.976 fps
Color space : YUV
Chroma subsampling : 4:2:0
Bit depth : 8 bits
Scan type : Progressive
Bits/(Pixel*Frame) : 0.160
Stream size : 1.16 GiB (79%)
Writing library : x264 core 146 r2538 121396c
Encoding settings : cabac=1 / ref=12 / deblock=1:-3:-3 / analyse=0x3:0x113 / me=umh / subme=11 / psy=1 / psy_rd=1.00:0.00 / mixed_ref=1 / me_range=48 / chroma_me=1 / trellis=2 / 8x8dct=1 / cqm=0 / deadzone=21,11 / fast_pskip=0 / chroma_qp_offset=-2 / threads=12 / lookahead_threads=3 / sliced_threads=0 / nr=0 / decimate=1 / interlaced=0 / bluray_compat=0 / constrained_intra=0 / bframes=13 / b_pyramid=2 / b_adapt=2 / b_bias=0 / direct=3 / weightb=1 / open_gop=0 / weightp=2 / keyint=240 / keyint_min=23 / scenecut=40 / intra_refresh=0 / rc_lookahead=40 / rc=2pass / mbtree=1 / bitrate=1678 / ratetol=1.0 / qcomp=0.60 / qpmin=0 / qpmax=69 / qpstep=4 / cplxblur=20.0 / qblur=0.5 / vbv_maxrate=14000 / vbv_bufsize=14000 / nal_hrd=none / filler=0 / ip_ratio=1.40 / aq=1:1.00
Default : Yes
Forced : No

Audio
ID : 2
Format : AC-3
Format/Info : Audio Coding 3
Mode extension : CM (complete main)
Codec ID : A_AC3
Duration : 1h 41mn
Bit rate mode : Constant
Bit rate : 384 Kbps
Channel(s) : 6 channels
Channel positions : Front: L C R, Side: L R, LFE
Sampling rate : 48.0 KHz
Bit depth : 16 bits
Compression mode : Lossy
Delay relative to video : 958ms
Stream size : 278 MiB (19%)
Default : Yes
Forced : No





реклама партнёра


Вернуться к началу
 Профиль Отправить личное сообщение  
 
   Похожие торренты   Автор   Торрент   Размер 
В этой теме нет новых непрочитанных сообщений. Рождество / The Night Before (Джонатан Левин) [2015, комедия, BDRip-AVC] mvo

Nickolas3435

728 | 21

2.14 ГБ

В этой теме нет новых непрочитанных сообщений. Рождество / The Night Before [комедия, 2015] BDRip-AVC, Mvo

salma3

148 | 50

2.18 ГБ

В этой теме нет новых непрочитанных сообщений. Рождество / The Night Before [комедия, 2015] BDRip, dub [Лицензия]

marya111

39 | 6

2.18 ГБ

В этой теме нет новых непрочитанных сообщений. Рождество / The Night Before [Комедия, 2015] BDRip, Dub [Лицензия]

salma3

205 | 19

1.46 ГБ

В этой теме нет новых непрочитанных сообщений. Рождество / The Night Before [Комедия, 2015] HDRip, dvo

Dracon

544 | 11

1.46 ГБ

В этой теме нет новых непрочитанных сообщений. Рики и Флэш / Ricki and the Flash (Джонатан Демме) [драма, комедия, 2015] BDRip 720p, Dub+Sub [Лицензия]

Dracon

164 | 9

5.07 ГБ

В этой теме нет новых непрочитанных сообщений. Рики и Флэш / Ricki and the Flash (Джонатан Демме) [2015, драма, комедия, BDRip 720p | iTunes] Dub

Dracon

623 | 38

4.89 ГБ


Начать новую тему Ответить на тему  [ 1 сообщение ] 




Для Мосгорсуда, Роскомнадзора и рекламодателей:: mosgorsud-torrent[собачка]yandex.ru