Торрент файл
скачать торрент магнет ссылка Добавлен: 29 фев 2016, 06:56
Размер: 743.98 МБ
Сидеров: 118
Личеров: 5
Статус: (salma3)
Автор

СообщениеДобавлено: 29 фев 2016, 06:56 

Не в сети
Супермодератор
Аватара пользователя
Дата регистрации:
06 июн 2014, 07:51
Спасибо: 588 / 0
Сообщения: 2002
Время шпионов / Анаклето: Секретный агент / Spy Time / Anacleto: Agente secreto

Перевод: Авторский (одноголосый), субтитры: отсутствуют
Формат: BDRip-AVC, MKV, H.264, MP3
Страна: Испания
Режиссер: Хавьер Руис Кальдера
Жанр: Боевик, комедия
Продолжительность: 01:33:21
Год выпуска: 2015
В ролях: Иманоль Ариас, Ким Гутьеррес, Росси де Пальма, Карлос Аресес, Александра Хименес, Сильвия Абриль, Хосе Корбачо, Эмилио Гутьеррес Каба, Берто Ромеро, Эдуардо Гомес

Описание: У тридцатилетнего сотрудника службы безопасности Адольфо началась черная полоса в жизни. Его бросила любовь всей его жизни, а наемные убийцы во главе с только что бежавшим из тюрьмы Васкесом начали на него охоту. К тому же, он узнает, что его отец ведет двойную жизнь. Простой фермер оказывается секретным агентом, который 30 лет назад посадил Васкеса в тюрьму. Адольфо предстоит выйти из зоны комфорта и вместе со своим отцом, которого он совсем не понимает, избежать мести Васкеса, а между перестрелками и погонями попытаться вернуть свою возлюбленную.



Видео: 720x304 (2.35:1), 23.976 fps, AVC (H.264), ~ 920 Кbps, 0.175 bit/pixel
Аудио: 44.100 kHz, MPEG Layer 3, 2 ch, ~192.00 kbps avg

General
Unique ID : 253133798765958447788324958548398658345 (0xBE6FCBDA2F4C598A97FB800A3B375329)
Complete name : C:XixidokSpy Time 2015 Xixidok.mkv
Format : Matroska
Format version : Version 1
File size : 744 MiB
Duration : 1h 33mn
Overall bit rate : 1 116 Kbps
Encoded date : UTC 2016-02-21 16:23:11
Writing application : mkvmerge v2.3.0 ('Freak U') built on Sep 8 2008 18:32:16
Writing library : libebml v0.7.7 + libmatroska v0.8.1

Video
ID : 1
Format : AVC
Format/Info : Advanced Video Codec
Format profile :
Format settings, CABAC : Yes
Format settings, ReFrames : 4 frames
Codec ID : V_MPEG4/ISO/AVC
Duration : 1h 33mn
Bit rate : 920 Kbps
Width : 720 pixels
Height : 304 pixels
Display aspect ratio : 2.35:1
Frame rate mode : Constant
Frame rate : 23.976 fps
Color space : YUV
Chroma subsampling : 4:2:0
Bit depth : 8 bits
Scan type : Progressive
Bits/(Pixel*Frame) : 0.175
Stream size : 601 MiB (81%)
Writing library : x264 core 142 r2479 dd79a61
Encoding settings : cabac=1 / ref=1 / deblock=1:0:0 / analyse=0x1:0x111 / me=hex / subme=2 / psy=1 / psy_rd=1.00:0.00 / mixed_ref=0 / me_range=16 / chroma_me=1 / trellis=0 / 8x8dct=0 / cqm=0 / deadzone=21,11 / fast_pskip=1 / chroma_qp_offset=0 / threads=6 / lookahead_threads=2 / sliced_threads=0 / nr=0 / decimate=1 / interlaced=0 / bluray_compat=0 / constrained_intra=0 / bframes=3 / b_pyramid=2 / b_adapt=1 / b_bias=0 / direct=1 / weightb=1 / open_gop=0 / weightp=1 / keyint=240 / keyint_min=24 / scenecut=40 / intra_refresh=0 / rc_lookahead=10 / rc=2pass / mbtree=1 / bitrate=920 / ratetol=1.0 / qcomp=0.60 / qpmin=0 / qpmax=69 / qpstep=4 / cplxblur=20.0 / qblur=0.5 / vbv_maxrate=20000 / vbv_bufsize=25000 / nal_hrd=none / filler=0 / ip_ratio=1.40 / aq=1:1.00
Default : Yes
Forced : No
Color primaries : BT.709
Transfer characteristics : BT.709
Matrix coefficients : BT.709
Color range : Limited

Audio
ID : 2
Format : MPEG Audio
Format version : Version 1
Format profile : Layer 3
Codec ID : A_MPEG/L3
Codec ID/Hint : MP3
Duration : 1h 33mn
Bit rate mode : Constant
Bit rate : 192 Kbps
Channel(s) : 2 channels
Sampling rate : 44.1 KHz
Compression mode : Lossy
Stream size : 128 MiB (17%)
Default : Yes
Forced : No




реклама партнёра


Вернуться к началу
 Профиль Отправить личное сообщение  
 
   Похожие торренты   Автор   Торрент   Размер 
В этой теме нет новых непрочитанных сообщений. Анаклет: Секретный агент / Anacleto: Agente secreto [Боевик, комедия, 2015] HDRip, dvo

Dracon

489 | 10

1.37 ГБ

В этой теме нет новых непрочитанных сообщений. Хитмэн: Агент 47 / Hitman: Agent 47 (Александр Бах) [боевик, фантастика, триллер, 2015] BDRip 1080p, Dub+Sub [Лицензия]

Dracon

1245 | 175

9.56 ГБ

В этой теме нет новых непрочитанных сообщений. Хитмэн: Агент 47 / Hitman: Agent 47 (Александр Бах) [боевик, фантастика, триллер, 2015] BDRip 720p, Dub+Sub [Лицензия]

Dracon

439 | 51

4.95 ГБ

В этой теме нет новых непрочитанных сообщений. Агент 117: Каир – шпионское гнездо / OSS 117: Le Caire, nid d'espions [боевик, комедия, криминал, приключения, 2006] BDRip, Dub+Sub

salma3

82 | 25

2.06 ГБ

В этой теме нет новых непрочитанных сообщений. Агент Коди Бэнкс / Agent Cody Banks [Комедия, боевик, приключения, 2003] BDRip 720p, Dub

salma3

37 | 30

4.84 ГБ

В этой теме нет новых непрочитанных сообщений. Агент Коди Бэнкс / Agent Cody Banks [боевик, триллер, мелодрама, комедия, 2003] BDRip, Dub [Лицензия]

salma3

57 | 29

1.46 ГБ

В этой теме нет новых непрочитанных сообщений. Агент Икс / Agent X [01x01 из 10] [боевик, драма, 2015] WEB-DLRip, Mvo [BaibaKo]

salma3

518 | 27

649.78 МБ


Начать новую тему Ответить на тему  [ 1 сообщение ] 




Для Мосгорсуда, Роскомнадзора и рекламодателей:: mosgorsud-torrent[собачка]yandex.ru