Торрент файл
скачать торрент магнет ссылка Добавлен: 29 фев 2016, 06:55
Размер: 2.14 ГБ
Сидеров: 29
Личеров: 4
Статус: (salma3)
Автор

СообщениеДобавлено: 29 фев 2016, 06:55 

Не в сети
Супермодератор
Аватара пользователя
Дата регистрации:
06 июн 2014, 07:51
Спасибо: 577 / 0
Сообщения: 2002
Маленькое привидение / Das kleine Gespenst

Перевод: Любительский (одноголосый)[viktor_2838], субтитры: отсутствуют
Формат: HDRip-AVC, MKV, H.264, AC3
Страна: Германия, Швейцария
Режиссер: Ален Гспонер
Жанр: фэнтези, семейный
Продолжительность: 01:31:35
Год выпуска: 2013
В ролях: Йонас Холденриедер, Emily Kusche, Нико Хартунг, Херберт Кнауп, Беттина Стуки, Уве Оксенкнехт, Карлос Рихтер, Штефан Мерки, Айкют Каячик

Описание:
Живущее в старинном замке Ойленштайн маленькое привидение мечтает увидеть мир при дневном свете. Как это сделать — никто не знает. Однажды во время ночной экскурсии по замку он знакомится со школьником Карлом. Тот рассказывает о неожиданной встрече, но ему не верят даже лучшие друзья Мари и Хайнес.
Ночное происшествие не проходит без последствий. В следующий раз маленькое привидение просыпается вовсе не в полночь, а средь бела дня. При первом контакте с солнечным светом призрак вместо белого неожиданно становится полностью чёрным. Появление чёрного привидения вызывает настоящий хаос в городе. Помочь ему могут только Карл и его друзья.



Видео: 1280x696 (16:9) 24 fps, MPEG4 AVC (x264) , 2688 Kbps Kbps avg, 0.126 Bits/Pixel
Аудио #1: Русский: 48 kHz, AC3 Dolby Digital, Front: L R 2ch, ~192 kbps avg [любительский (одноголосый)]
Аудио #2: Немецкий: 48 kHz, AC3 Dolby Digital, 3/2 (L,C,R,l,r) + LFE ch, ~448 kbps avg [Оригинал]

General
Complete name : D:Маленькое привидение (2013).1280фильмMalenkoe_prividenie.2013.HDRip.720p.2gb.mkv
Format : Matroska
File size : 2.14 GiB
Duration : 1h 31mn
Overall bit rate : 3 341 Kbps
Encoded date : UTC 2016-02-01 10:53:41
Writing application : Lavf55.11.101
Writing library : Lavf55.11.101

Video
ID : 1
Format : AVC
Format/Info : Advanced Video Codec
Format profile :
Format settings, CABAC : Yes
Format settings, ReFrames : 2 frames
Codec ID : V_MPEG4/ISO/AVC
Duration : 1h 31mn
Bit rate : 2 688 Kbps
Width : 1 280 pixels
Height : 696 pixels
Display aspect ratio : 16:9
Frame rate mode : Variable
Frame rate : 24.000 fps
Color space : YUV
Chroma subsampling : 4:2:0
Bit depth : 8 bits
Scan type : Progressive
Bits/(Pixel*Frame) : 0.126
Stream size : 1.69 GiB (79%)
Writing library : x264 core 135 r2345
Encoding settings : cabac=1 / ref=2 / deblock=1:0:0 / analyse=0x1:0x131 / me=hex / subme=7 / psy=1 / psy_rd=1.00:0.00 / mixed_ref=0 / me_range=16 / chroma_me=1 / trellis=1 / 8x8dct=0 / cqm=0 / deadzone=21,11 / fast_pskip=1 / chroma_qp_offset=-2 / threads=6 / lookahead_threads=1 / sliced_threads=0 / nr=0 / decimate=1 / interlaced=0 / bluray_compat=0 / constrained_intra=0 / bframes=3 / b_pyramid=0 / b_adapt=1 / b_bias=0 / direct=3 / weightb=1 / open_gop=0 / weightp=2 / keyint=240 / keyint_min=24 / scenecut=40 / intra_refresh=0 / rc_lookahead=40 / rc=abr / mbtree=1 / bitrate=2688 / ratetol=1.0 / qcomp=0.60 / qpmin=10 / qpmax=69 / qpstep=4 / vbv_maxrate=24000 / vbv_bufsize=24000 / nal_hrd=none / ip_ratio=1.40 / aq=1:1.00
Language : English

Audio #1
ID : 2
Format : AC-3
Format/Info : Audio Coding 3
Mode extension : CM (complete main)
Codec ID : A_AC3
Duration : 1h 31mn
Bit rate mode : Constant
Bit rate : 192 Kbps
Channel(s) : 2 channels
Channel positions : Front: L R
Sampling rate : 48.0 KHz
Bit depth : 16 bits
Stream size : 126 MiB (6%)
Title : viktor_2838
Language : Russian

Audio #2
ID : 3
Format : AC-3
Format/Info : Audio Coding 3
Mode extension : CM (complete main)
Codec ID : A_AC3
Duration : 1h 31mn
Bit rate mode : Constant
Bit rate : 448 Kbps
Channel(s) : 6 channels
Channel positions : Front: L C R, Side: L R, LFE
Sampling rate : 48.0 KHz
Bit depth : 16 bits
Stream size : 294 MiB (13%)
Language : German

Menu
00:00:00.000 : :00:00:00.000
00:09:39.333 : :00:09:39.333
00:20:06.375 : :00:20:06.375
00:30:42.708 : :00:30:42.708
00:39:48.042 : :00:39:48.042
00:49:35.458 : :00:49:35.458
00:59:48.542 : :00:59:48.542
01:10:12.458 : :01:10:12.458
01:20:06.750 : :01:20:06.750





реклама партнёра


Вернуться к началу
 Профиль Отправить личное сообщение  
 
   Похожие торренты   Автор   Торрент   Размер 
В этой теме нет новых непрочитанных сообщений. Маленькое привидение / Das kleine Gespenst [фэнтези, семейный, 2013] BDRip 720p, avo+sub

Dracon

14 | 3

3 ГБ

В этой теме нет новых непрочитанных сообщений. Русалочка / Die kleine Meerjungfrau (Ирина Попоу) [Фэнтези, семейный, 2013] HDTVRip, Mvo

Dracon

11 | 3

746.54 МБ

В этой теме нет новых непрочитанных сообщений. Небольшое привидение / Mostly Ghostly [фэнтези, семейный, 2008] WEBDLRip, Dvo

salma3

9 | 3

1.47 ГБ

В этой теме нет новых непрочитанных сообщений. Небольшое привидение / Mostly Ghostly [фэнтези, семейный. 2008] WEB-DL 720p, Dvo+Sub

salma3

71 | 41

2.99 ГБ

В этой теме нет новых непрочитанных сообщений. Небольшое привидение: Одна ночь в проклятом доме / Mostly Ghostly 3: One Night in Doom House [Ужасы, фэнтези, семейный, 2016] WEB-DL 720p, Dub [iTunes]

marya111

234 | 24

2.85 ГБ

В этой теме нет новых непрочитанных сообщений. Небольшое привидение: Одна ночь в проклятом доме / Mostly Ghostly 3: One Night in Doom House [Ужасы, фэнтези, семейный, 2016] WEB-DLRip, Dub [iTunes]

salma3

218 | 91

744.9 МБ

В этой теме нет новых непрочитанных сообщений. Небольшое привидение: Одна ночь в проклятом доме / Mostly Ghostly 3: One Night in Doom House [Ужасы, фэнтези, семейный, 2016] WEB-DLRip, Dub [iTunes]

salma3

421 | 169

1.37 ГБ


Начать новую тему Ответить на тему  [ 1 сообщение ] 




Для Мосгорсуда, Роскомнадзора и рекламодателей:: mosgorsud-torrent[собачка]yandex.ru