Торрент файл
скачать торрент магнет ссылка Добавлен: 29 фев 2016, 06:55
Размер: 1.38 ГБ
Сидеров: 71
Личеров: 2
Статус: (salma3)
Автор

СообщениеДобавлено: 29 фев 2016, 06:55 

Не в сети
Супермодератор
Аватара пользователя
Дата регистрации:
06 июн 2014, 07:51
Спасибо: 577 / 0
Сообщения: 2002
Виктор Франкенштейн / Victor Frankenstein

Перевод: Любительский (одноголосый) solod, субтитры: есть (русские, английские)
Формат: WEB-DLRip-AVC, MKV, H.264, AC3
Страна: США
Режиссер: Пол МакГиган
Жанр: ужасы, фантастика, драма
Продолжительность: 01:50:24
Год выпуска: 2015
В ролях: Дэниэл Рэдклифф, Джессика Браун-Финдли, Бронсон Уэбб, Джеймс МакЭвой, Дэниэл Мейс, Спенсер Уидлинг, Робин Пирс, Эндрю Скотт, Каллум Тернер, Ди Ботчер

Описание: Новый взгляд на фантастическую историю Виктора Франкенштейна, на этот раз — с точки зрения его помощника Игоря.



Видео: 1024x424 (2.40:1), 23.976 fps, AVC(H264), , 1600 kbps, 0.154 bpp
Аудио: 48kHz, ac3 dolby digital, 2.0 ch, 192 kbbs

General
Unique ID : 268441085395492807658493613441897364924 (0xC9F3DF59FA435A1B266D1DC1120E7DBC)
Complete name :victor.frankenstein.2015.1024.solod.rus.2.0.mkv
Format : Matroska
Format version : Version 4 / Version 2
File size : 1.38 GiB
Duration : 1h 50mn
Overall bit rate : 1 793 Kbps
Movie name : Victor Frankenstein 2015
Released date : 2015
Encoded date : UTC 2016-02-20 14:36:52 / UTC 2016-02-20T00:30:54Z
Writing application : mkvmerge v8.8.0 ('Wind at my back') 64bit
Writing library : libebml v1.3.3 + libmatroska v1.4.4 / Lavf55.12.0

Video
ID : 1
Format : AVC
Format/Info : Advanced Video Codec
Format profile :
Format settings, CABAC : Yes
Format settings, ReFrames : 4 frames
Codec ID : V_MPEG4/ISO/AVC
Duration : 1h 50mn
Bit rate : 1 600 Kbps
Width : 1 024 pixels
Height : 424 pixels
Display aspect ratio : 2.40:1
Original display aspect ratio : 2.40:1
Frame rate mode : Constant
Frame rate : 23.976 (24000/1001) fps
Color space : YUV
Chroma subsampling : 4:2:0
Bit depth : 8 bits
Scan type : Progressive
Bits/(Pixel*Frame) : 0.154
Stream size : 1.21 GiB (87%)
Writing library : x264 core 148
Encoding settings : cabac=1 / ref=1 / deblock=1:0:0 / analyse=0x1:0x111 / me=hex / subme=9 / psy=1 / psy_rd=1,00:0,00 / mixed_ref=0 / me_range=16 / chroma_me=1 / trellis=0 / 8x8dct=0 / cqm=0 / deadzone=21,11 / fast_pskip=1 / chroma_qp_offset=-2 / threads=6 / lookahead_threads=1 / sliced_threads=0 / nr=0 / decimate=1 / interlaced=0 / bluray_compat=0 / constrained_intra=0 / bframes=3 / b_pyramid=2 / b_adapt=1 / b_bias=0 / direct=1 / weightb=1 / open_gop=0 / weightp=1 / keyint=240 / keyint_min=24 / scenecut=40 / intra_refresh=0 / rc_lookahead=10 / rc=2pass / mbtree=1 / bitrate=1600 / ratetol=1,0 / qcomp=0,60 / qpmin=0 / qpmax=69 / qpstep=4 / cplxblur=20,0 / qblur=0,5 / vbv_maxrate=50000 / vbv_bufsize=62500 / nal_hrd=none / filler=0 / ip_ratio=1,40 / aq=1:1,00
Default : Yes
Forced : No
Color range : Limited
Color primaries : BT.709
Transfer characteristics : BT.709
Matrix coefficients : BT.709
Statistics Tags Issue : mkvmerge v8.8.0 ('Wind at my back') 64bit 2016-02-20 14:36:52 / mkvmerge v8.8.0 ('Wind at my back') 64bit 2016-02-20 14:36:52 / UTC 2016-02-20T00:30:54Z
FromStats_BitRate : 1599770
FromStats_Duration : 01:50:24.827000000
FromStats_FrameCount : 158837
FromStats_StreamSize : 1324775668

Audio
ID : 2
Format : AC-3
Format/Info : Audio Coding 3
Mode extension : CM (complete main)
Format settings, Endianness : Big
Codec ID : A_AC3
Duration : 1h 50mn
Bit rate mode : Constant
Bit rate : 192 Kbps
Channel(s) : 2 channels
Channel positions : Front: L R
Sampling rate : 48.0 KHz
Frame rate : 31.250 fps (1536 spf)
Compression mode : Lossy
Delay relative to video : -83ms
Stream size : 152 MiB (11%)
Title : vo solod
Language : Russian
Default : Yes
Forced : No
Statistics Tags Issue : mkvmerge v8.8.0 ('Wind at my back') 64bit 2016-02-20 14:36:52 / mkvmerge v8.8.0 ('Wind at my back') 64bit 2016-02-20 14:36:52 / UTC 2016-02-20T00:30:54Z
FromStats_BitRate : 192000
FromStats_Duration : 01:49:50.848000000
FromStats_FrameCount : 205964
FromStats_StreamSize : 158180352

Text #1
ID : 3
Format : UTF-8
Codec ID : S_TEXT/UTF8
Codec ID/Info : UTF-8 Plain Text
Title : Full-length
Language : Russian
Default : No
Forced : No
Statistics Tags Issue : mkvmerge v8.8.0 ('Wind at my back') 64bit 2016-02-20 14:36:52 / mkvmerge v8.8.0 ('Wind at my back') 64bit 2016-02-20 14:36:52 / UTC 2016-02-20T00:30:54Z
FromStats_BitRate : 78
FromStats_Duration : 01:49:08.089000000
FromStats_FrameCount : 1165
FromStats_StreamSize : 64447

Text #2
ID : 4
Format : UTF-8
Codec ID : S_TEXT/UTF8
Codec ID/Info : UTF-8 Plain Text
Title : ORIGINAL
Language : English
Default : No
Forced : No
Statistics Tags Issue : mkvmerge v8.8.0 ('Wind at my back') 64bit 2016-02-20 14:36:52 / mkvmerge v8.8.0 ('Wind at my back') 64bit 2016-02-20 14:36:52 / UTC 2016-02-20T00:30:54Z
FromStats_BitRate : 51
FromStats_Duration : 01:42:55.234000000
FromStats_FrameCount : 1379
FromStats_StreamSize : 39908

Menu
00:00:00.000 : :1
00:04:06.162 : :2
00:08:05.151 : :3
00:11:13.130 : :4
00:15:18.125 : :5
00:18:56.176 : :6
00:22:24.176 : :7
00:26:04.187 : :8
00:28:56.192 : :9
00:31:59.167 : :10
00:35:58.156 : :11
00:41:07.131 : :12
00:46:13.145 : :13
00:51:44.184 : :14
00:56:38.186 : :15
00:59:50.128 : :16
01:02:32.165 : :17
01:06:52.174 : :18
01:11:19.149 : :19
01:15:08.128 : :20
01:18:04.179 : :21
01:21:00.188 : :22
01:25:14.150 : :23
01:28:11.160 : :24
01:33:28.144 : :25
01:37:44.150 : :26
01:41:25.162 : :27
01:43:27.201 : :28




реклама партнёра


Вернуться к началу
 Профиль Отправить личное сообщение  
 
   Похожие торренты   Автор   Торрент   Размер 
В этой теме нет новых непрочитанных сообщений. Виктор Франкенштейн / Victor Frankenstein (Пол МакГиган) [2015, ужасы, фантастика, драма, WEB-DLRip-AVC] Dub

Nickolas3435

2048 | 32

2.17 ГБ

В этой теме нет новых непрочитанных сообщений. Виктор Франкенштейн / Victor Frankenstein [ужасы, фантастика, драма, 2015] CAMRip, dub

yurban

11631 | 688

1.47 ГБ

В этой теме нет новых непрочитанных сообщений. Виктор Франкенштейн / Victor Frankenstein [ужасы, фантастика, драма, 2015] BDRip, Dub [лицензия]

salma3

1261 | 27

1.46 ГБ

В этой теме нет новых непрочитанных сообщений. Виктор Франкенштейн / Victor Frankenstein [фантастика, триллер, драма, 2015] BDRip 720p, Dub

salma3

54 | 11

5.61 ГБ

В этой теме нет новых непрочитанных сообщений. Франкенштейн / Frankenstein [ужасы, фантастика, драма, мелодрама, 1994] BDRip 720p, Dub

salma3

19 | 6

5.33 ГБ

В этой теме нет новых непрочитанных сообщений. Франкенштейн / Frankenstein [Ужасы, Триллер, 2015] BDRemux 1080p, Avo+Sub

salma3

0 | 0

21.21 ГБ

В этой теме нет новых непрочитанных сообщений. Франкенштейн / Frankenstein (Бернард Роуз) [2015, ужасы, триллер, DVDRip] avo

Nickolas3435

147 | 6

739.86 МБ


Начать новую тему Ответить на тему  [ 1 сообщение ] 




Для Мосгорсуда, Роскомнадзора и рекламодателей:: mosgorsud-torrent[собачка]yandex.ru