Торрент файл
скачать торрент магнет ссылка Добавлен: 26 фев 2016, 20:47
Размер: 2.18 ГБ
Сидеров: 249
Личеров: 51
Статус: (salma3)
Автор

СообщениеДобавлено: 26 фев 2016, 20:47 

Не в сети
Супермодератор
Аватара пользователя
Дата регистрации:
15 фев 2012, 16:44
Возраст: 27
Спасибо: 5121 / 2089
Сообщения: 17296
Производство: США / Tales From The Crypt Holdings, Universal City Studios
Жанр: Ужасы, Фэнтези, Комедия
Режиссер: Гилберт Адлер

Актеры: Джон Кассир, Деннис Миллер, Эрика Элениак, Энджи Эверхарт, Крис Сарандон, Кори Фельдман, Обри Моррис, Фил Фондакаро, Уильям Сэдлер, Киара Хантер

Описание:
Мадам Лилит и ее сексапильные помощницы содержат очень необычный бордель на окраине города. Они берут за услуги не только деньги, но и высасывают из клиентов кровь до последней капли.
Хитроватый пройдоха Рэйф Гэттмен тоже попадает в эту переделку и оказывается один на один с дюжиной кровавых вампиров и, мало того, с его Преподобием Джимми Кэррентом, проходимцем, обладающим всемогущим талисманом.



Автор: охрана (NNM-CLUB)
Продолжительность: 01:26:33
Качество видео: BDRip-AVC
Перевод: Профессиональный (многоголосый закадровый), авторский Ю.Живов
Язык субтитров: Английский
Вид субтитров: Вшитые отключаемые
Видео: AVC/H.264, 1024x552, ~3035 Kbps
Аудио 1: Русский, AC3 2.0, 192 Kbps, 48 kHz (MVO, СТС)
Аудио 2: Русский, AC3 2.0, 192 Kbps, 48 kHz (АVO, Ю.Живов)
Аудио 3: Английский, AC3 2.0, 192 Kbps, 48 kHz (Оригинал)

General
Unique ID : 208823349425604159942536481973520562846 (0x9D19EA0758BE305A9E1AD6BEAF6FFA9E)
Complete name : F:DownloadsБайки из склепа. Кровавый бордель.mkv
Format : Matroska
Format version : Version 4 / Version 2
File size : 2.18 GiB
Duration : 1h 26mn
Overall bit rate : 3 610 Kbps
Encoded date : UTC 2016-02-24 05:55:08
Writing application : mkvmerge v7.0.0 ('Where We Going') 32bit built on Jun 9 2014 15:08:34
Writing library : libebml v1.3.0 + libmatroska v1.4.1
DURATION : 01:19:40.637000000
NUMBER_OF_FRAMES : 1067
NUMBER_OF_BYTES : 43186
_STATISTICS_WRITING_APP : mkvmerge v7.0.0 ('Where We Going') 32bit built on Jun 9 2014 15:08:34
_STATISTICS_WRITING_DATE_UTC : 2016-02-24 05:55:08
_STATISTICS_TAGS : BPS DURATION NUMBER_OF_FRAMES NUMBER_OF_BYTES
Video
ID : 1
Format : AVC
Format/Info : Advanced Video Codec
Format profile : High@L4.1
Format settings, CABAC : Yes
Format settings, ReFrames : 8 frames
Codec ID : V_MPEG4/ISO/AVC
Duration : 1h 26mn
Bit rate : 3 035 Kbps
Width : 1 024 pixels
Height : 552 pixels
Display aspect ratio : 1.85:1
Frame rate mode : Constant
Frame rate : 23.976 fps
Color space : YUV
Chroma subsampling : 4:2:0
Bit depth : 8 bits
Scan type : Progressive
Bits/(Pixel*Frame) : 0.224
Stream size : 1.79 GiB (82%)
Title : Bordello of Blood
Writing library : x264 core 125 r2208 d9d2288
Encoding settings : cabac=1 / ref=8 / deblock=1:-1:-1 / analyse=0x3:0x133 / me=umh / subme=9 / psy=1 / psy_rd=1.00:0.10 / mixed_ref=1 / me_range=32 / chroma_me=1 / trellis=2 / 8x8dct=1 / cqm=0 / deadzone=21,11 / fast_pskip=0 / chroma_qp_offset=-3 / threads=6 / lookahead_threads=1 / sliced_threads=0 / nr=0 / decimate=1 / interlaced=0 / bluray_compat=0 / constrained_intra=0 / bframes=3 / b_pyramid=2 / b_adapt=2 / b_bias=0 / direct=3 / weightb=1 / open_gop=0 / weightp=2 / keyint=250 / keyint_min=25 / scenecut=40 / intra_refresh=0 / rc_lookahead=60 / rc=2pass / mbtree=1 / bitrate=3035 / ratetol=1.0 / qcomp=0.60 / qpmin=0 / qpmax=69 / qpstep=4 / cplxblur=20.0 / qblur=0.5 / ip_ratio=1.40 / aq=1:1.00
Language : English
Default : Yes
Forced : No
Audio #1
ID : 2
Format : AC-3
Format/Info : Audio Coding 3
Mode extension : CM (complete main)
Format settings, Endianness : Big
Codec ID : A_AC3
Duration : 1h 26mn
Bit rate mode : Constant
Bit rate : 192 Kbps
Channel(s) : 2 channels
Channel positions : Front: L R
Sampling rate : 48.0 KHz
Bit depth : 16 bits
Compression mode : Lossy
Stream size : 119 MiB (5%)
Title : MVO, СТС
Language : Russian
Default : Yes
Forced : No
Audio #2
ID : 3
Format : AC-3
Format/Info : Audio Coding 3
Mode extension : CM (complete main)
Format settings, Endianness : Big
Codec ID : A_AC3
Duration : 1h 26mn
Bit rate mode : Constant
Bit rate : 192 Kbps
Channel(s) : 2 channels
Channel positions : Front: L R
Sampling rate : 48.0 KHz
Bit depth : 16 bits
Compression mode : Lossy
Stream size : 119 MiB (5%)
Title : AVO, Ю.Живов
Language : Russian
Default : No
Forced : No
Audio #3
ID : 4
Format : AC-3
Format/Info : Audio Coding 3
Mode extension : CM (complete main)
Format settings, Endianness : Big
Codec ID : A_AC3
Duration : 1h 26mn
Bit rate mode : Constant
Bit rate : 192 Kbps
Channel(s) : 2 channels
Channel positions : Front: L R
Sampling rate : 48.0 KHz
Bit depth : 16 bits
Compression mode : Lossy
Stream size : 119 MiB (5%)
Title : Оригинал
Language : English
Default : No
Forced : No
Text
ID : 5
Format : UTF-8
Codec ID : S_TEXT/UTF8
Codec ID/Info : UTF-8 Plain Text
Title : SRT
Language : English
Default : No
Forced : No


_________________



реклама партнёра


Вернуться к началу
 Профиль Отправить личное сообщение  
 
   Похожие торренты   Автор   Торрент   Размер 
В этой теме нет новых непрочитанных сообщений. Байки из склепа: Демон ночи / Tales from the Crypt: Demon Knight [ужасы, фэнтези, триллер, комедия, 1995] BDRip 1080p, mvo+avo+sub

salma3

53 | 8

7.75 ГБ

В этой теме нет новых непрочитанных сообщений. Байки из склепа / Tales from the Crypt [ужасы, фэнтези, триллер, комедия, криминал, детектив, 1989] DVD5, Avo

salma3

1 | 3

4.18 ГБ

В этой теме нет новых непрочитанных сообщений. Байки из склепа: Демон ночи / Tales from the Crypt: Demon Knight [ужасы, фэнтези, триллер, комедия, 1995] HDRip, Mvo [R5]

salma3

31 | 6

1.46 ГБ

В этой теме нет новых непрочитанных сообщений. Кровавый выстрел / Blood Shot (Дитрих Джонстон) [Ужасы, Боевик, Комедия, 2013] BDRip 720p, avo

Dracon

19 | 12

4.5 ГБ

В этой теме нет новых непрочитанных сообщений. Феникс & Тарантул - Байки из Склепа [2010, Heavy Metal, MP3]

PriZraK

0 | 1

114.93 МБ

В этой теме нет новых непрочитанных сообщений. Кровавый выстрел / Blood Shot (Дитрих Джонстон) [Ужасы, Боевик, Комедия, 2013] HDRip, avo

Dracon

7 | 3

1.37 ГБ

В этой теме нет новых непрочитанных сообщений. Кровавый след / Blood Trails [ужасы, триллер, 2006] DVDRip, Mvo

salma3

43 | 4

1.47 ГБ


Начать новую тему Ответить на тему  [ 1 сообщение ] 




Для Мосгорсуда, Роскомнадзора и рекламодателей:: mosgorsud-torrent[собачка]yandex.ru