Торрент файл
скачать торрент магнет ссылка Добавлен: 26 фев 2016, 01:01
Размер: 812.46 МБ
Сидеров: 42
Личеров: 17
Статус: (salma3)
Автор

СообщениеДобавлено: 26 фев 2016, 01:01 

Не в сети
Супермодератор
Аватара пользователя
Дата регистрации:
15 фев 2012, 16:44
Возраст: 28
Спасибо: 6594 / 2145
Сообщения: 44279
Бродячие псы / Stray Dogs

Год выхода: 2002
Жанр: драма
Режиссер: Катрин Крауч

В ролях: Жиневьева Тернер, Дот Джонс, Билл Сейдж, Райан Келли, Зэк Грэй, Даррел Робертс, Джои Типтон, Тим Айлдж

О фильме:
Уставшая мать изо всех сил пытается воспитать своих двоих детей и справиться с мужем-алкоголиком.



Производство: США / Stray Dogs LLC
Продолжительность: 01:39:46
Перевод: авторский [одноголосый] [Сергей Кузнецов]

Файл
Качество: DVDRip-AVC
Формат файла: MP4
Видео кодек: AVC
Аудио кодек: AC3
Видео: AVC, 710x350 (16:9), 29.970 fps, 786 kbps, 0.106 bit/pixel
Аудио1: русский, AC3 2.0, 48 kHz, 192 kbps
Аудио2: английский, AAC 2.0, 48 kHz, 156 kbps


Общее
Полное имя : Stray.Dogs.2002.DVDRip.mp4
Формат : MPEG-4
Профиль формата : Base Media
Идентификатор кодека : isom
Размер файла : 812 Мбайт
Продолжительность : 1 ч. 39 м.
Режим общего битрейта : Переменный
Общий поток : 1139 Кбит/сек
Дата кодирования : UTC 2016-02-21 13:56:29
Дата пометки : UTC 2016-02-21 13:56:29
Программа кодирования : My MP4Box GUI 0.6.0.6
Видео
Идентификатор : 1
Формат : AVC
Формат/Информация : Advanced Video Codec
Профиль формата : Main@L3
Параметр CABAC формата : Да
Параметр ReFrames формата : 2 кадра
Идентификатор кодека : avc1
Идентификатор кодека/Информация : Advanced Video Coding
Продолжительность : 1 ч. 39 м.
Битрейт : 786 Кбит/сек
Максимальный битрейт : 4035 Кбит/сек
Ширина : 710 пикселей
Высота : 350 пикселей
Соотношение сторон : 16:9
Режим частоты кадров : Постоянный
Частота кадров : 29,970 кадров/сек
Цветовое пространство : YUV
Субдискретизация насыщенности : 4:2:0
Битовая глубина : 8 бит
Тип развёртки : Прогрессивная
Бит/(Пиксели*Кадры) : 0.106
Размер потока : 561 Мбайт (69%)
Заголовок : Stray Dogs.h264
Библиотека кодирования : x264 core 79
Настройки программы : cabac=1 / ref=2 / deblock=1:0:0 / analyse=0x1:0x111 / me=hex / subme=6 / psy=1 / psy_rd=1.0:0.0 / mixed_ref=0 / me_range=16 / chroma_me=1 / trellis=0 / 8x8dct=0 / cqm=0 / deadzone=21,11 / chroma_qp_offset=-2 / threads=3 / nr=0 / decimate=1 / mbaff=0 / constrained_intra=0 / bframes=2 / b_pyramid=0 / b_adapt=1 / b_bias=0 / direct=1 / wpredb=0 / wpredp=2 / keyint=300 / keyint_min=30 / scenecut=40 / rc_lookahead=40 / rc=crf / mbtree=1 / crf=20.0 / qcomp=0.60 / qpmin=10 / qpmax=51 / qpstep=4 / ip_ratio=1.40 / aq=1:1.00
Язык : English
Дата кодирования : UTC 2016-02-21 13:56:29
Дата пометки : UTC 2016-02-21 14:00:36
Цветовой диапазон : Limited
Основные цвета : BT.601 NTSC
Характеристики трансфера : BT.709
Коэффициенты матрицы : BT.601
Аудио #1
Идентификатор : 2
Формат : AC-3
Формат/Информация : Audio Coding 3
Расширение режима : CM (complete main)
Параметр Endianness формата : Big
Идентификатор кодека : ac-3
Продолжительность : 1 ч. 39 м.
Вид битрейта : Постоянный
Битрейт : 192 Кбит/сек
Каналы : 2 канала
Расположение каналов : Front: L R
Частота : 48,0 КГц
Битовая глубина : 16 бит
Метод сжатия : С потерями
Размер потока : 137 Мбайт (17%)
Заголовок : Stray Dogs_rus.ac3
Язык : Russian
Дата кодирования : UTC 2016-02-21 14:00:03
Дата пометки : UTC 2016-02-21 14:00:36
Аудио #2
Идентификатор : 3
Формат : AAC
Формат/Информация : Advanced Audio Codec
Профиль формата : LC
Идентификатор кодека : 40
Продолжительность : 1 ч. 39 м.
Вид битрейта : Переменный
Битрейт : 156 Кбит/сек
Максимальный битрейт : 193 Кбит/сек
Каналы : 2 канала
Расположение каналов : Front: L R
Частота : 48,0 КГц
Метод сжатия : С потерями
Размер потока : 111 Мбайт (14%)
Заголовок : Stray Dogs_eng.aac
Язык : English
Дата кодирования : UTC 2016-02-21 14:00:29
Дата пометки : UTC 2016-02-21 14:00:36


_________________
Проголосуй за трекер Открытый торрент трекер - RUS-MEDIA.ORG

Проголосуй Открытый торрент трекер - RUS-MEDIA.ORG



реклама партнёра


Вернуться к началу
 Профиль Отправить личное сообщение  
 
   Похожие торренты   Автор   Торрент   Размер 
В этой теме нет новых непрочитанных сообщений. Шальные пули / Stray Bullets [триллер, драма, криминал, 2016] WEB-DLRip, Mvo

salma3

428 | 187

1.37 ГБ

В этой теме нет новых непрочитанных сообщений. Луговые собачки / Lawn Dogs [Драма, 1997] DVDRip, Mvo

salma3

30 | 4

1.45 ГБ

В этой теме нет новых непрочитанных сообщений. Не все собаки кусачие / Baby Brother / Some Dogs Bite [драма, 2010] DVDRip, Mvo

salma3

68 | 5

1.46 ГБ

В этой теме нет новых непрочитанных сообщений. Гончие псы / Car Dogs [драма, комедия, 2016] WEB-DLRip, Mvo

salma3

27 | 9

1.37 ГБ

В этой теме нет новых непрочитанных сообщений. Гончие псы / Car Dogs [драма, комедия, 2016] WEB-DLRip 720p, Mvo

salma3

45 | 28

3.07 ГБ

В этой теме нет новых непрочитанных сообщений. Парни со стволами / War Dogs (драма, комедия, военный, 2016) TS | Line

marya111

2425 | 160

1.37 ГБ

В этой теме нет новых непрочитанных сообщений. Бешеные псы / Mad Dogs [S01] [Драма, комедия, криминал, 2016] WEB-DL 720p [IdeaFilm]

Dracon

152 | 125

24.66 ГБ


Начать новую тему Ответить на тему  [ 1 сообщение ] 




Для Мосгорсуда, Роскомнадзора и рекламодателей:: mosgorsud-torrent[собачка]yandex.ru