Торрент файл
скачать торрент магнет ссылка Добавлен: 15 фев 2016, 13:34
Размер: 1.46 ГБ
Сидеров: 43
Личеров: 5
Статус: (salma3)
Автор

СообщениеДобавлено: 15 фев 2016, 13:34 

В сети
Супермодератор
Аватара пользователя
Дата регистрации:
15 фев 2012, 16:44
Возраст: 27
Спасибо: 5143 / 2090
Сообщения: 17495
Год выхода: 1996
Жанр: боевик, спорт
Режиссер: Алан Мерец / Alan Mehrez
В ролях: Дэниэл Бернхард, Джон Рис-Дэвис, Амбер ван Линт, Юни Пак, Джеймс Хон, Пэт Морита, Раджив Чандрашекхар, Дэвид Шатц, Стивен Ито, Мастер Хи Иль Чо

О фильме:
Бывший чемпион Алекс Кардо закончил свои выступления, он не собирается больше драться за деньги… Несмотря на заманчивые предложения некоего Дювалле, устроителя платных поединков и по совместительству гангстерского босса.
Однако Алексу все же пришлось вспомнить старое и выйти на бой. Дело в том, что его старого учителя мастера Сана злодейски убили, и, как справедливо подозревает Алекс по поручению Дювалле.
Алекс отправляется в глухую деревню, к другому мастеру, брату покойного, где тренируются по классической системе восточных стилей единоборств. По возвращении он готов к решающему поединку, он верит в свои силы и в то, что его учитель будет отомщен…



Страна: США
Продолжительность: 01:32:00
Перевод: Профессиональный (многоголосый, закадровый) - Варус видео
Перевод 2: Авторский (одноголосый закадровый) - Володарский Леонид

Файл
Кодек: MPEG-4 AVС
Качество: DVDRip
Видео: MPEG-4 AVС, 1689 kbps, 640х480, 23,976 fps, (4:3), High Profile 4.1
Аудио: 48 kHz, AC3 Dolby Digital, 2/0 (L,R) ch, ~192 kbps | RUS (DVO)
Аудио 2: 48 kHz, AC3 Dolby Digital, 2/0 (L,R) ch, ~192 kbps | RUS (AVO)
Аудио 3: 48 kHz, AC3 Dolby Digital, 2/0 (L,R) ch, ~192 kbps | ENG (Original)

Unique ID : 216530501942613403527424625966498349334 (0xA2E641FC5399810896541E2799468116)
Format : Matroska
Format version : Version 2
File size : 1.46 GiB
Duration : 1h 32mn
Overall bit rate : 2 267 Kbps
Encoded date : UTC 2016-02-14 06:13:38
Writing application : mkvmerge v7.8.0 ('River Man') 32bit built on Apr 3 2015 12:11:22
Writing library : libebml v1.3.1 + libmatroska v1.4.2
Video
ID : 1
Format : AVC
Format/Info : Advanced Video Codec
Format profile : High@L4.1
Format settings, CABAC : Yes
Format settings, ReFrames : 8 frames
Codec ID : V_MPEG4/ISO/AVC
Duration : 1h 32mn
Bit rate : 1 689 Kbps
Width : 640 pixels
Height : 480 pixels
Display aspect ratio : 4:3
Frame rate mode : Constant
Frame rate : 23.976 fps
Color space : YUV
Chroma subsampling : 4:2:0
Bit depth : 8 bits
Scan type : Progressive
Bits/(Pixel*Frame) : 0.229
Stream size : 1.06 GiB (73%)
Writing library : x264 core 146 r2538 121396c
Encoding settings : cabac=1 / ref=8 / deblock=1:-1:-1 / analyse=0x3:0x133 / me=umh / subme=9 / psy=1 / psy_rd=1.00:0.10 / mixed_ref=1 / me_range=24 / chroma_me=1 / trellis=2 / 8x8dct=1 / cqm=0 / deadzone=21,11 / fast_pskip=0 / chroma_qp_offset=-3 / threads=3 / lookahead_threads=1 / sliced_threads=0 / nr=0 / decimate=1 / interlaced=0 / bluray_compat=0 / constrained_intra=0 / bframes=8 / b_pyramid=2 / b_adapt=2 / b_bias=0 / direct=3 / weightb=1 / open_gop=0 / weightp=2 / keyint=250 / keyint_min=23 / scenecut=40 / intra_refresh=0 / rc_lookahead=50 / rc=2pass / mbtree=1 / bitrate=1689 / ratetol=1.0 / qcomp=0.60 / qpmin=0 / qpmax=69 / qpstep=4 / cplxblur=20.0 / qblur=0.5 / ip_ratio=1.40 / aq=1:1.00
Default : Yes
Forced : No
Audio #1
ID : 2
Format : AC-3
Format/Info : Audio Coding 3
Mode extension : CM (complete main)
Format settings, Endianness : Big
Codec ID : A_AC3
Duration : 1h 32mn
Bit rate mode : Constant
Bit rate : 192 Kbps
Channel(s) : 2 channels
Channel positions : Front: L R
Sampling rate : 48.0 KHz
Bit depth : 16 bits
Compression mode : Lossy
Stream size : 126 MiB (8%)
Title : DVO (Варус-видео)
Language : Russian
Default : Yes
Forced : No
Audio #2
ID : 3
Format : AC-3
Format/Info : Audio Coding 3
Mode extension : CM (complete main)
Format settings, Endianness : Big
Codec ID : A_AC3
Duration : 1h 32mn
Bit rate mode : Constant
Bit rate : 192 Kbps
Channel(s) : 2 channels
Channel positions : Front: L R
Sampling rate : 48.0 KHz
Bit depth : 16 bits
Compression mode : Lossy
Stream size : 126 MiB (8%)
Title : AVO (Володарский)
Language : Russian
Default : No
Forced : No
Audio #3
ID : 4
Format : AC-3
Format/Info : Audio Coding 3
Mode extension : CM (complete main)
Format settings, Endianness : Big
Codec ID : A_AC3
Duration : 1h 32mn
Bit rate mode : Constant
Bit rate : 192 Kbps
Channel(s) : 2 channels
Channel positions : Front: L R
Sampling rate : 48.0 KHz
Bit depth : 16 bits
Compression mode : Lossy
Stream size : 126 MiB (8%)
Title : Original
Language : English
Default : No
Forced : No


Релиз от:
Автор: Sem-te


_________________



реклама партнёра


Вернуться к началу
 Профиль Отправить личное сообщение  
 
   Похожие торренты   Автор   Торрент   Размер 
В этой теме нет новых непрочитанных сообщений. Кровавый спорт 2 / Bloodsport 2 [боевик, спорт, 1996] DVDRip-AVC, Dvo+Avo

salma3

83 | 16

1.45 ГБ

В этой теме нет новых непрочитанных сообщений. Кровавый спорт 3 / Bloodsport 3 [Боевик, боевые искусства, 1996] DVDRip-AVC, Dvo+Avo

salma3

58 | 16

2.17 ГБ

В этой теме нет новых непрочитанных сообщений. Кровавый спорт / Bloodsport [драма, спорт, биография, боевик, 1988] BDRemux 1080p, Mvo

salma3

10 | 2

17.28 ГБ

В этой теме нет новых непрочитанных сообщений. Кровавый спорт / Bloodsport [Боевик, драма, биография, спорт, 1988] BDRip 720p, Mvo+Dvo+3Avo+Sub

salma3

26 | 8

5.97 ГБ

В этой теме нет новых непрочитанных сообщений. Кровавый спорт 4: Цвет тьмы / Bloodsport: The Dark Kumite [Боевик, боевые искусства, 1999] DVDRip-AVC, Mvo+Avo

salma3

95 | 31

2.29 ГБ

В этой теме нет новых непрочитанных сообщений. Спорт будущего / Futuresport [фантастика, боевик, триллер, спорт, 1998] BDRip, Dub+Mvo+Sub

salma3

15 | 5

1.46 ГБ

В этой теме нет новых непрочитанных сообщений. Счастливчик Гилмор / Happy Gilmore [комедия, спорт, 1996] BDRemux 1080p, Mvo

salma3

7 | 0

21.59 ГБ


Начать новую тему Ответить на тему  [ 1 сообщение ] 




Для Мосгорсуда, Роскомнадзора и рекламодателей:: mosgorsud-torrent[собачка]yandex.ru