Торрент файл
скачать торрент магнет ссылка Добавлен: 22 янв 2016, 22:30
Размер: 2.87 ГБ
Сидеров: 5330
Личеров: 208
Статус: (salma3)
Автор

СообщениеДобавлено: 22 янв 2016, 22:30 

Не в сети
Администратор
Дата регистрации:
08 апр 2010, 18:00
Спасибо: 1110 / 220
Сообщения: 17090
Информация о фильме
Название: Шпионский мост
Оригинальное название: Bridge of Spies
Год выпуска: 2015
Страна: США, Германия, Индия
Жанр: триллер, драма, биография
Перевод: Дубляж - [Чистый звук] (Без рекламы)
Субтитры: русские (Forced), английские (Forced), английские (Full), английские (SDH)
Продолжительность: 02:21:19
Режиссер: Стивен Спилберг
В ролях: Том Хэнкс (James B. Donovan), Марк Райлэнс (Rudolf Abel), Эми Райан (Mary Donovan), Алан Алда (Thomas Watters Jr.), Остин Стоуэлл (Francis Gary Powers), Скотт Шеперд (Hoffman), Джесси Племонс (Joe Murphy), Доменик Ломбардоззи (Agent Blasco), Себастьян Кох (Wolfgang Vogel), Ив Хьюсон (Carol Donovan), Дэкин Мэтьюз (Judge Byers), Майкл Гэстон (Agent Williams)

Описание:
Действие фильма происходит на фоне серии реальных исторических событий и рассказывает о бруклинском адвокате Джеймсе Доноване, который оказывается в эпицентре холодной войны, когда ЦРУ отправляет его на практически невозможное задание - договориться об освобождении захваченного в СССР американского пилота самолета-разведчика U2.

Рейтинг:

MPAA: PG-13 - Детям до 13 лет просмотр не желателен

Качество: BDRip-AVC
Формат: MKV
Видео: AVC, 1056x440 (2.40:1), 2263 kbps, 23,976 fps, 0,203 bpp
Аудио №1: русский / AC3 / 2.0 / 48 kHz / 192 kbps / 16 bit |Дубляж, Чистый звук|
Аудио №2: английский / AC3 / 5.1 / 48 kHz / 448 kbps / 16 bit
Навигация по главам: есть
Семпл

General
Unique ID : 250005883773054538346996860267383587586 (0xBC1561BC8A684B748086DD9D07818302)
Complete name : H:Bridge.of.Spies.2015.BDRip.AVC.by.R.G.Resident.mkv
Format : Matroska
Format version : Version 4 / Version 2
File size : 2.87 GiB
Duration : 2h 21mn
Overall bit rate : 2 903 Kbps
Movie name : Bridge of Spies (2015) BDRip-AVC by R.G. Resident
Encoded date : UTC 2016-01-21 07:28:41
Writing application : mkvmerge v8.8.0 ('Wind at my back') 64bit
Writing library : libebml v1.3.3 + libmatroska v1.4.4
DURATION : 02:10:57.210000000
NUMBER_OF_FRAMES : 2108
NUMBER_OF_BYTES : 76010
_STATISTICS_WRITING_APP : mkvmerge v8.8.0 ('Wind at my back') 64bit
_STATISTICS_WRITING_DATE_UTC : 2016-01-21 07:28:41
_STATISTICS_TAGS : BPS DURATION NUMBER_OF_FRAMES NUMBER_OF_BYTES

Video
ID : 1
Format : AVC
Format/Info : Advanced Video Codec
Format profile : High@L4.1
Format settings, CABAC : Yes
Format settings, ReFrames : 12 frames
Codec ID : V_MPEG4/ISO/AVC
Duration : 2h 21mn
Bit rate : 2 263 Kbps
Width : 1 056 pixels
Height : 440 pixels
Display aspect ratio : 2.40:1
Frame rate : 23.976 fps
Color space : YUV
Chroma subsampling : 4:2:0
Bit depth : 8 bits
Scan type : Progressive
Bits/(Pixel*Frame) : 0.203
Stream size : 2.18 GiB (76%)
Title : -Lexx-
Writing library : x264 core 146 r2538 121396c
Encoding settings : cabac=1 / ref=12 / deblock=1:-2:-2 / analyse=0x3:0x113 / me=umh / subme=11 / psy=1 / psy_rd=1.00:0.10 / mixed_ref=1 / me_range=32 / chroma_me=1 / trellis=2 / 8x8dct=1 / cqm=0 / deadzone=21,11 / fast_pskip=0 / chroma_qp_offset=-3 / threads=6 / lookahead_threads=2 / sliced_threads=0 / nr=0 / decimate=0 / interlaced=0 / bluray_compat=0 / constrained_intra=0 / bframes=12 / b_pyramid=2 / b_adapt=2 / b_bias=0 / direct=3 / weightb=1 / open_gop=0 / weightp=2 / keyint=240 / keyint_min=23 / scenecut=40 / intra_refresh=0 / rc=2pass / mbtree=0 / bitrate=2263 / ratetol=1.0 / qcomp=0.60 / qpmin=0 / qpmax=69 / qpstep=4 / cplxblur=20.0 / qblur=0.5 / ip_ratio=1.40 / pb_ratio=1.30 / aq=1:1.00
Language : English
Default : Yes
Forced : No
DURATION : 02:21:19.596000000
NUMBER_OF_FRAMES : 203307
NUMBER_OF_BYTES : 2395926272
_STATISTICS_WRITING_APP : mkvmerge v8.8.0 ('Wind at my back') 64bit
_STATISTICS_WRITING_DATE_UTC : 2016-01-21 07:28:41
_STATISTICS_TAGS : BPS DURATION NUMBER_OF_FRAMES NUMBER_OF_BYTES

Audio #1
ID : 2
Format : AC-3
Format/Info : Audio Coding 3
Mode extension : CM (complete main)
Codec ID : A_AC3
Duration : 2h 21mn
Bit rate mode : Constant
Bit rate : 192 Kbps
Channel(s) : 2 channels
Channel positions : Front: L R
Sampling rate : 48.0 KHz
Bit depth : 16 bits
Compression mode : Lossy
Delay relative to video : 2s 500ms
Stream size : 194 MiB (7%)
Title : Дубляж - Чистый звук
Language : Russian
Default : Yes
Forced : No

Audio #2
ID : 3
Format : AC-3
Format/Info : Audio Coding 3
Mode extension : CM (complete main)
Codec ID : A_AC3
Duration : 2h 21mn
Bit rate mode : Constant
Bit rate : 448 Kbps
Channel(s) : 6 channels
Channel positions : Front: L C R, Side: L R, LFE
Sampling rate : 48.0 KHz
Bit depth : 16 bits
Compression mode : Lossy
Stream size : 453 MiB (15%)
Title : Оригинал
Language : English
Default : No
Forced : No

Text #1
ID : 4
Format : UTF-8
Codec ID : S_TEXT/UTF8
Codec ID/Info : UTF-8 Plain Text
Title : Forced
Language : Russian
Default : Yes
Forced : No

Text #2
ID : 5
Format : UTF-8
Codec ID : S_TEXT/UTF8
Codec ID/Info : UTF-8 Plain Text
Title : Forced
Language : English
Default : No
Forced : No

Text #3
ID : 6
Format : UTF-8
Codec ID : S_TEXT/UTF8
Codec ID/Info : UTF-8 Plain Text
Title : Full
Language : English
Default : No
Forced : No

Text #4
ID : 7
Format : UTF-8
Codec ID : S_TEXT/UTF8
Codec ID/Info : UTF-8 Plain Text
Title : SDH
Language : English
Default : No
Forced : No

Menu
00:00:00.000 : en:Chapter 1
00:10:29.462 : en:Chapter 2
00:17:46.482 : en:Chapter 3
00:22:09.828 : en:Chapter 4
00:25:27.901 : en:Chapter 5
00:31:18.210 : en:Chapter 6
00:37:45.722 : en:Chapter 7
00:45:29.268 : en:Chapter 8
00:52:36.695 : en:Chapter 9
01:00:39.427 : en:Chapter 10
01:07:17.867 : en:Chapter 11
01:16:52.399 : en:Chapter 12
01:33:55.672 : en:Chapter 13
01:45:41.752 : en:Chapter 14
01:56:31.193 : en:Chapter 15
02:07:20.550 : en:Chapter 16
02:14:18.801 : en:Chapter 17




реклама партнёра


Вернуться к началу
 Профиль Отправить личное сообщение  
 
   Похожие торренты   Автор   Торрент   Размер 
В этой теме нет новых непрочитанных сообщений. Шпионский мост / Bridge of Spies [триллер, драма, биография, история, 2015] BDRip 720p, Dub+Sub [Лицензия]

Dracon

613 | 67

8.56 ГБ

В этой теме нет новых непрочитанных сообщений. Шпионский мост / Bridge of Spies [триллер, драма, биография, история, 2015] BDRip 1080p, Dub+Sub [iTunes]

Dracon

143 | 16

16.32 ГБ

В этой теме нет новых непрочитанных сообщений. Шпионский мост / Bridge of Spies [триллер, драма, биография, история, 2015] HDRip-AVC, dub [iTunes]

Dracon

69 | 3

2.26 ГБ

В этой теме нет новых непрочитанных сообщений. Шпионский мост / Bridge of Spies [триллер, драма, биография, история, 2015] HDRip, dub [лицензия]

Dracon

1431 | 77

1.45 ГБ

В этой теме нет новых непрочитанных сообщений. Шпионский мост / Bridge of Spies [триллер, драма, биография, история, 2015] HDRip, dub [iTunes]

yurban

53 | 8

2.73 ГБ

В этой теме нет новых непрочитанных сообщений. Шпионский мост / Bridge of Spies [триллер, драма, биография, история, 2015] HDRip, dub [iTunes]

Dracon

250 | 8

2.05 ГБ

В этой теме нет новых непрочитанных сообщений. Шпионский мост / Bridge of Spies [триллер, драма, история, 2015] BDRip 720p, Dub+avo [Лицензия]

marya111

0 | 0

7.96 ГБ


Начать новую тему Ответить на тему  [ 1 сообщение ] 




Для Мосгорсуда, Роскомнадзора и рекламодателей:: mosgorsud-torrent[собачка]yandex.ru