Торрент файл
скачать торрент магнет ссылка Добавлен: 14 янв 2016, 16:16
Размер: 2.19 ГБ
Сидеров: 52
Личеров: 2
Статус: (salma3)
Автор

СообщениеДобавлено: 14 янв 2016, 16:16 

Не в сети
Супермодератор
Аватара пользователя
Дата регистрации:
15 фев 2012, 16:44
Возраст: 27
Спасибо: 5139 / 2090
Сообщения: 17432
Плохие парни 2 / Bad Boys II

Год выпуска: 2003
Жанр: Боевик, Приключения, Комедия
Режиссер: Майкл Бэй

Актеры: Мартин Лоуренс, Уилл Смит, Петер Стормаре, Джо Пантолиано, Майкл Шеннон, Генри Роллинс, Олег Тактаров, Джей Амор, Джонни Хассельбах

Описание:
Детективы отдела по борьбе с незаконным оборотом наркотиков Майк Лоури и Маркус Бэрнетт получают задание расследовать схему доставки нового наркотика в Майами. Это расследование выводит их на искуссный заговор, сплетенный местным наркобароном с целью поставить под контроль всю торговлю наркотиками в городе. По чистой случайности про эти амбициозные планы узнают и остальные игроки нелегального рынка, в результате чего вспыхивает настоящая война. Несмотря на это, Майку и Маркусу удается успешно справляться с натиском наркомафии и сажать дилеров за решетку. Но ситуация начинает выходить из-под контроля, когда Майк не на шутку увлекается сестрой Маркуса, Сидни. Торжество закона висит на волоске - ведь вместо выполнения спецзаданий детективы начинают выяснять отношения между собой…



Производство: США, Columbia Pictures Corporation
Продолжительность: 2:26:44
Перевод: Авторский (одноголосый, закадровый) [В.Завгородний]

Файл
Качество: HDRip
Формат файла: AVI
Видео кодек: XviD
Аудио кодек: AC3
Видео: XviD, 720x304 (2.35:1), 23.976 fps, 1 672 Kbps (0.319 bit/pixel)
Аудио: AC-3, 48.0 KHz, 6 ch, 448 Kbps, CBR


Формат : AVI
Формат/Информация : Audio Video Interleave
Профиль формата : OpenDML
Размер файла : 2,19 Гбайт
Продолжительность : 2 ч. 26 м.
Общий поток : 2132 Кбит/сек
Программа кодирования : VirtualDubMod 1.5.10.3 | www.virtualdub-fr.org || (build 2550/release)
Библиотека кодирования : VirtualDubMod build 2550/release

Видео
Идентификатор : 0
Формат : MPEG-4 Visual
Профиль формата : Advanced Simple@L5
Параметр BVOP формата : 1
Параметр QPel формата : Нет
Параметр GMC формата : Без точки перехода
Параметр матрицы формата : Default (MPEG)
Идентификатор кодека : XVID
Идентификатор кодека/Подсказка : XviD
Продолжительность : 2 ч. 26 м.
Битрейт : 1672 Кбит/сек
Ширина : 720 пикселей
Высота : 304 пикселя
Соотношение сторон : 2,35:1
Частота кадров : 23,976 кадра/сек
Цветовое пространство : YUV
Субдискретизация насыщенности : 4:2:0
Битовая глубина : 8 бит
Тип развёртки : Прогрессивная
Метод сжатия : С потерями
Бит/(Пиксели*Кадры) : 0.319
Размер потока : 1,71 Гбайт (78%)
Библиотека кодирования : XviD 73

Аудио
Идентификатор : 1
Формат : AC-3
Формат/Информация : Audio Coding 3
Расширение режима : CM (complete main)
Параметр Endianness формата : Big
Идентификатор кодека : 2000
Продолжительность : 2 ч. 26 м.
Вид битрейта : Постоянный
Битрейт : 448 Кбит/сек
Каналы : 6 каналов
Расположение каналов : Front: L C R, Side: L R, LFE
Частота : 48,0 КГц
Битовая глубина : 16 бит
Метод сжатия : С потерями
Размер потока : 470 Мбайт (21%)
Выравнивание : Разделение по промежуткам
Продолжительность промежутка : 42 мс. (1,00 видеокадр)
Время предзагрузки промежутка : 500 мс.
Спасибо, автору перевода Владимиру Завгороднему.
Перевод Владимира Завгороднего доступен благодаря: DREADG, работа со звуком DREADG, постер от mihaildns.

Релиз от: FAGOT100 (NNM-CLUB)


_________________



реклама партнёра


Вернуться к началу
 Профиль Отправить личное сообщение  
 
   Похожие торренты   Автор   Торрент   Размер 
В этой теме нет новых непрочитанных сообщений. Плохие парни 2 / Bad Boys II [боевик, триллер, комедия, 2003] DVD9, Dub+Sub

salma3

23 | 8

5.66 ГБ

В этой теме нет новых непрочитанных сообщений. Плохие парни 2 / Bad Boys II [Боевик, криминал, комедия, 2003] BDRip-AVC, Dub+Mvo+Avo+Sub

salma3

34 | 5

4.54 ГБ

В этой теме нет новых непрочитанных сообщений. Плохие парни 2 / Bad Boys II [боевик, триллер, комедия, криминал, 2003] BDRip 720p, Dub+Sub

salma3

1 | 3

16.94 ГБ

В этой теме нет новых непрочитанных сообщений. Плохие парни / Bad Boys [Комедия, боевик, 1995] BDRip 1080p, Dub+Mvo+Avo+Sub

salma3

61 | 12

12.94 ГБ

В этой теме нет новых непрочитанных сообщений. Плохие парни / Bad Boys [боевик, триллер, драма, 1995] DVD9, Mvo+Dub+Sub

salma3

18 | 6

4.91 ГБ

В этой теме нет новых непрочитанных сообщений. Очень плохие парни / Big Bad Wolves [Триллер, криминал, 2013] HDRip, Avo

salma3

2 | 2

1.37 ГБ

В этой теме нет новых непрочитанных сообщений. Недооформлен Парни из Абу-Грейб / Boys of Abu Ghraib [2014] HDRip Данный торрент является блокированным, причина: недооформленный торрент

tresore

2 | 0

1.46 ГБ


Начать новую тему Ответить на тему  [ 1 сообщение ] 




Для Мосгорсуда, Роскомнадзора и рекламодателей:: mosgorsud-torrent[собачка]yandex.ru