Торрент файл
скачать торрент магнет ссылка Добавлен: 14 янв 2016, 12:53
Размер: 1.45 ГБ
Сидеров: 78
Личеров: 9
Статус: (salma3)
Автор

СообщениеДобавлено: 14 янв 2016, 12:53 

Не в сети
Супермодератор
Аватара пользователя
Дата регистрации:
15 фев 2012, 16:44
Возраст: 27
Спасибо: 5135 / 2089
Сообщения: 17409
Некуда бежать / Nowhere to Run

Год выпуска: 1993
Жанр: боевик, триллер, драма
Режиссер: Роберт Хармон / Robert Harmon

В ролях: Жан-Клод Ван Дамм, Розанна Аркетт, Киран Калкин, Тед Левайн, Тиффани Тоубмэн, Эдвард Блэтчфорд, Стефен Бриджуотер, Кристи Боткин, Луана Андерс, Джон Рубиноу

Описание:
Сэм, беглый заключенный находит кров на уединенной ферме, где живет молодая женщина с двумя детьми. С трудом сбежав от полиции, он уже на пути к свободе, но безопасность тех, кто помог ему в трудную минуту, заставляет его вернуться. Беспомощной женщине и двум ее детям угрожает опасность — подкупленный судья и бандиты хотят отобрать у них дом — и Сэм встает на защиту семьи. В трудной схватке он один противостоит нескольким головорезам, но только так он может заслужить любовь и доверие тех, кто стал для него самым дорогими людьми на свете.



Страна: США
Продолжительность: 01:34:19
Перевод: Профессиональный (дублированный)
Cубтитры: русские, английские

Файл
Качество: BDRip-AVC
Формат файла: AVC
Видео кодек: MPEG-4
Аудио кодек: AC3
Видео: MPEG-4 AVС, 1820 kbps, 768х416, 23,976 fps, (1.85:1), High Profile 4.1
Аудио: 48 kHz, AC3 Dolby Digital, 3/2 (L,C,R,l,r) + LFE ch, ~384.00 kbps avg


General
Unique ID : 244769207362936011798988513258934366597 (0xB824D5A7D9507644A240F2BF2923F185)
Format : Matroska
Format version : Version 2
File size : 1.45 GiB
Duration : 1h 34mn
Overall bit rate : 2 204 Kbps
Encoded date : UTC 2016-01-05 11:33:13
Writing application : mkvmerge v7.8.0 ('River Man') 32bit built on Apr 3 2015 12:11:22
Writing library : libebml v1.3.1 + libmatroska v1.4.2

Video
ID : 1
Format : AVC
Format/Info : Advanced Video Codec
Format profile : High@L4.1
Format settings, CABAC : Yes
Format settings, ReFrames : 8 frames
Codec ID : V_MPEG4/ISO/AVC
Duration : 1h 34mn
Bit rate : 1 820 Kbps
Width : 768 pixels
Height : 416 pixels
Display aspect ratio : 1.85:1
Frame rate mode : Constant
Frame rate : 23.976 fps
Color space : YUV
Chroma subsampling : 4:2:0
Bit depth : 8 bits
Scan type : Progressive
Bits/(Pixel*Frame) : 0.238
Stream size : 1.17 GiB (81%)
Writing library : x264 core 146 r2538 121396c
Encoding settings : cabac=1 / ref=8 / deblock=1:-1:-1 / analyse=0x3:0x113 / me=umh / subme=11 / psy=1 / psy_rd=1.00:0.20 / mixed_ref=1 / me_range=32 / chroma_me=1 / trellis=2 / 8x8dct=1 / cqm=0 / deadzone=21,11 / fast_pskip=0 / chroma_qp_offset=-3 / threads=3 / lookahead_threads=1 / sliced_threads=0 / nr=0 / decimate=0 / interlaced=0 / bluray_compat=0 / constrained_intra=0 / bframes=8 / b_pyramid=2 / b_adapt=2 / b_bias=0 / direct=3 / weightb=1 / open_gop=0 / weightp=2 / keyint=250 / keyint_min=23 / scenecut=40 / intra_refresh=0 / rc_lookahead=50 / rc=2pass / mbtree=1 / bitrate=1820 / ratetol=1.0 / qcomp=0.60 / qpmin=0 / qpmax=69 / qpstep=4 / cplxblur=20.0 / qblur=0.5 / vbv_maxrate=14000 / vbv_bufsize=14000 / nal_hrd=none / filler=0 / ip_ratio=1.40 / aq=1:1.00
Default : Yes
Forced : No

Audio
ID : 2
Format : AC-3
Format/Info : Audio Coding 3
Mode extension : CM (complete main)
Format settings, Endianness : Big
Codec ID : A_AC3
Duration : 1h 34mn
Bit rate mode : Constant
Bit rate : 384 Kbps
Channel(s) : 6 channels
Channel positions : Front: L C R, Side: L R, LFE
Sampling rate : 48.0 KHz
Bit depth : 16 bits
Compression mode : Lossy
Stream size : 259 MiB (17%)
Title : Dub
Language : Russian
Default : Yes
Forced : No

Text #1
ID : 3
Format : UTF-8
Codec ID : S_TEXT/UTF8
Codec ID/Info : UTF-8 Plain Text
Language : Russian
Default : No
Forced : No

Text #2
ID : 4
Format : UTF-8
Codec ID : S_TEXT/UTF8
Codec ID/Info : UTF-8 Plain Text
Language : English
Default : No
Forced : No

Menu
00:00:00.000 : en:Chapter 01
00:06:16.539 : en:Chapter 02
00:11:23.138 : en:Chapter 03
00:20:33.855 : en:Chapter 04
00:26:13.527 : en:Chapter 05
00:31:30.886 : en:Chapter 06
00:38:51.661 : en:Chapter 07
00:46:41.172 : en:Chapter 08
00:48:45.922 : en:Chapter 09
00:54:19.338 : en:Chapter 10
01:00:10.148 : en:Chapter 11
01:06:52.046 : en:Chapter 12
01:12:14.997 : en:Chapter 13
01:19:34.185 : en:Chapter 14
01:24:00.452 : en:Chapter 15
01:27:21.734 : en:Chapter 16
01:34:19.403 : en:Chapter 17



Автор: Sem-teРелиз от:


_________________



реклама партнёра


Вернуться к началу
 Профиль Отправить личное сообщение  
 
   Похожие торренты   Автор   Торрент   Размер 
В этой теме нет новых непрочитанных сообщений. Некуда бежать / Nowhere To Run [боевик, 1993] DVDRip, Mvo

salma3

6 | 0

1.45 ГБ

В этой теме нет новых непрочитанных сообщений. Дерево Джошуа / Joshua Tree [боевик, триллер, драма, 1993] BDRip, Dub

salma3

21 | 1

1.45 ГБ

В этой теме нет новых непрочитанных сообщений. На линии огня / In the Line of Fire [боевик, триллер, драма, криминал, детектив, 1993] BDRip 720p, Dub

salma3

47 | 10

7.75 ГБ

В этой теме нет новых непрочитанных сообщений. Ромео истекает кровью / Полицейский под прицелом / Romeo Is Bleeding [Боевик, триллер, драма, криминал, 1993] BDRip 1080p, Mvo

salma3

70 | 27

15.35 ГБ

В этой теме нет новых непрочитанных сообщений. Трудная мишень / Hard Target [Боевик, триллер, 1993] BDRip, Avo

salma3

36 | 3

1.48 ГБ

В этой теме нет новых непрочитанных сообщений. Поезд смерти / Death Train [боевик, триллер, 1993] BDRip 1080p, Dvo+Avo

salma3

48 | 6

9.26 ГБ

В этой теме нет новых непрочитанных сообщений. На расстоянии удара / Striking Distance [Боевик, триллер, криминал, детектив, 1993] BDRip, Mvo

salma3

12 | 0

1.48 ГБ


Начать новую тему Ответить на тему  [ 1 сообщение ] 




Для Мосгорсуда, Роскомнадзора и рекламодателей:: mosgorsud-torrent[собачка]yandex.ru