Торрент файл
скачать торрент магнет ссылка Добавлен: 14 янв 2016, 05:25
Размер: 1.46 ГБ
Сидеров: 406
Личеров: 3
Статус: (salma3)
Автор

СообщениеДобавлено: 14 янв 2016, 05:25 

Не в сети
Супермодератор
Аватара пользователя
Дата регистрации:
06 июн 2014, 07:51
Спасибо: 620 / 0
Сообщения: 2001
Информация о фильме
Название: Ужастики
Оригинальное название: Goosebumps
Год выпуска: 2015
Страна: США, Австралия
Жанр: фэнтези, комедия, приключения
Перевод: Дубляж - [iTunes]
Продолжительность: 01:43:17
Режиссер: Роб Леттерман
В ролях: Дилан Миннетт, Одейя Раш, Эми Райан, Райан Ли, Джиллиан Белл, Джек Блэк, Кен Марино, Холстон Сейдж, Стивен Крюгер, Кит А. Болден, Аманда Ланд, Тимоти С. Саймонс

Описание:
Кошмары бывают разные. Вечно голодные оборотни, плохо воспитанные зомби, агрессивные садовые гномы и даже гигантский неуравновешенный снежный человек...
Все эти фантастические монстры и монстрики многие годы магическим образом удерживались на страницах знаменитых бестселлеров «Ужастики», пока по воле случая их не выпустили на свободу в реальный мир.

MPAA: PG - Рекомендуется присутствие родителей

Качество: WEB-DLRip-AVC
Формат: MKV
Видео: AVC, 1024x424 (2.40:1), 1640 kbps, 23,976 fps, 0,158 bpp
Аудио: AC3 / 5.1 / 48 kHz / 384 kbps / 16 bit

General
Unique ID : 217089585775369677993949735158493007618 (0xA351EEF261895568BCFB2077F1B0CF02)
Complete name : D:downloadYzhasyki.2015.WEB-DLRip-AVC by schultz R.G.Resident.mkv
Format : Matroska
Format version : Version 2
File size : 1.46 GiB
Duration : 1h 43mn
Overall bit rate : 2 023 Kbps
Encoded date : UTC 2016-01-07 04:18:37
Writing application : mkvmerge v6.1.0 ('Old Devil') built on Mar 4 2013 09:10:42
Writing library : libebml v1.3.0 + libmatroska v1.4.0

Video
ID : 1
Format : AVC
Format/Info : Advanced Video Codec
Format profile : High@L4.1
Format settings, CABAC : Yes
Format settings, ReFrames : 12 frames
Codec ID : V_MPEG4/ISO/AVC
Duration : 1h 43mn
Bit rate : 1 640 Kbps
Width : 1 024 pixels
Height : 424 pixels
Display aspect ratio : 2.40:1
Frame rate : 23.976 fps
Color space : YUV
Chroma subsampling : 4:2:0
Bit depth : 8 bits
Scan type : Progressive
Bits/(Pixel*Frame) : 0.158
Stream size : 1.15 GiB (79%)
Writing library : x264 core 130 r2273 b3065e6
Encoding settings : cabac=1 / ref=12 / deblock=1:-3:-3 / analyse=0x3:0x113 / me=umh / subme=11 / psy=1 / psy_rd=1.00:0.10 / mixed_ref=1 / me_range=48 / chroma_me=1 / trellis=2 / 8x8dct=1 / cqm=0 / deadzone=21,11 / fast_pskip=0 / chroma_qp_offset=-3 / threads=12 / lookahead_threads=3 / sliced_threads=0 / nr=0 / decimate=1 / interlaced=0 / bluray_compat=0 / constrained_intra=0 / bframes=13 / b_pyramid=2 / b_adapt=2 / b_bias=0 / direct=3 / weightb=1 / open_gop=0 / weightp=2 / keyint=240 / keyint_min=24 / scenecut=40 / intra_refresh=0 / rc_lookahead=40 / rc=2pass / mbtree=0 / bitrate=1640 / ratetol=1.0 / qcomp=0.60 / qpmin=0 / qpmax=69 / qpstep=4 / cplxblur=20.0 / qblur=0.5 / vbv_maxrate=14000 / vbv_bufsize=14000 / nal_hrd=none / ip_ratio=1.40 / pb_ratio=1.30 / aq=1:0.80
Default : Yes
Forced : No

Audio
ID : 2
Format : AC-3
Format/Info : Audio Coding 3
Mode extension : CM (complete main)
Codec ID : A_AC3
Duration : 1h 43mn
Bit rate mode : Constant
Bit rate : 384 Kbps
Channel(s) : 6 channels
Channel positions : Front: L C R, Side: L R, LFE
Sampling rate : 48.0 KHz
Bit depth : 16 bits
Compression mode : Lossy
Stream size : 284 MiB (19%)
Default : Yes
Forced : No





реклама партнёра


Вернуться к началу
 Профиль Отправить личное сообщение  
 
   Похожие торренты   Автор   Торрент   Размер 
В этой теме нет новых непрочитанных сообщений. Ужастики / Goosebumps (Роб Леттерман) [2015, фэнтези, комедия, приключения, HDRip] Dub

Nickolas3435

1355 | 30

2.05 ГБ

В этой теме нет новых непрочитанных сообщений. Ужастики / Goosebumps [фэнтези, комедия, приключения, 2015] WEB-DLRip-AVC, dub [iTunes]

Dracon

702 | 89

1.8 ГБ

В этой теме нет новых непрочитанных сообщений. Ужастики / Goosebumps (Роб Леттерман) [фэнтези, комедия, приключения, 2015] WEBRip, dub [Чистый звук]

Dracon

1787 | 17

1.37 ГБ

В этой теме нет новых непрочитанных сообщений. Ужастики / Goosebumps (Роб Леттерман) [фэнтези, комедия, приключения, 2015] WEBRip 720p, dub [Чистый звук]

Dracon

696 | 11

3.38 ГБ

В этой теме нет новых непрочитанных сообщений. Ужастики / Goosebumps [фэнтези, комедия, приключения, 2015] WEB-DL 720p, dub [iTunes]

Dracon

4063 | 66

3.18 ГБ

В этой теме нет новых непрочитанных сообщений. Ужастики / Goosebumps [фэнтези, комедия, приключения, 2015] WEB-DL 1080p, dub [iTunes]

Dracon

2724 | 55

3.63 ГБ

В этой теме нет новых непрочитанных сообщений. Ужастики / Goosebumps [фэнтези, комедия, приключения, 2015] HDRip, dub [iTunes]

Dracon

7138 | 604

1.37 ГБ


Начать новую тему Ответить на тему  [ 1 сообщение ] 




Для Мосгорсуда, Роскомнадзора и рекламодателей:: mosgorsud-torrent[собачка]yandex.ru