Торрент файл
скачать торрент магнет ссылка Добавлен: 11 янв 2016, 13:05
Размер: 897.13 МБ
Сидеров: 24
Личеров: 2
Статус: (salma3)
Автор

СообщениеДобавлено: 11 янв 2016, 13:05 

В сети
Супермодератор
Аватара пользователя
Дата регистрации:
15 фев 2012, 16:44
Возраст: 27
Спасибо: 5139 / 2089
Сообщения: 17421
Безумный Джек / Blood Salvage

Год выхода: 1990
Жанр: ужасы, комедия
Режиссер: Такер Джонстон

В ролях: Дэнни Нельсон, Лори Бердсонг, Кристиан Хеслер, Ральф Прюитт Вон, Джон Сэксон, Лаура Уайт, Рей Уолстон, Энди Гринуэй, Дэн Олбрайт, Джил Роупер, Лонни Р. Смит, Эвандер Холлифилд

О фильме:
Семья Эвансов после конкурса на самую красивую девочку, где их дочь, прикованная к инвалидной коляске, тоже претендовала на первое место, возвращается домой. Кто-то открутил болты на колесе, и их автобус терпит аварию. По удивительной случайности мимо проезжает эвакуатор, и они с радостью воспользовались услугами случайной техники, которая привозит их на отдаленную безлюдную свалку машин.
Странные обитатели свалки, свободно гуляющий крокодил, который выполняет работу сторожа и охранника, - все это еще не самое ужасное, с чем придется столкнуться несчастной семье.



Производство: США / Blood Salvage, High Five Entertainment, Paragon Arts International
Продолжительность: 01:38:15
Перевод: авторский [одноголосый] [Вячеслав Котов]

Файл
Качество: LDRip
Формат файла: AVI
Видео кодек: XviD
Аудио кодек: AC3
Видео: XviD, 640x368, 29.970 fps, 944 kbps
Аудио1: русский, AC3 2.0, 48 kHz, 192 kbps
Аудио2: английский, MP3 2.0, 48 kHz, 128 kbps


Общее
Полное имя : Blood.Salvage.1990.LDRip.avi
Формат : AVI
Формат/Информация : Audio Video Interleave
Размер файла : 897 Мбайт
Продолжительность : 1 ч. 38 м.
Режим общего битрейта : Переменный
Общий поток : 1277 Кбит/сек
Программа кодирования : VirtualDubMod 1.5.10.2 (build 2540/release)
Библиотека кодирования : VirtualDubMod build 2540/release

Видео
Идентификатор : 0
Формат : MPEG-4 Visual
Профиль формата : Advanced Simple@L5
Параметр BVOP формата : 1
Параметр QPel формата : Нет
Параметр GMC формата : Без точки перехода
Параметр матрицы формата : Default (H.263)
Режим смешивания : Сжатый битовый поток
Идентификатор кодека : XVID
Идентификатор кодека/Подсказка : XviD
Продолжительность : 1 ч. 38 м.
Битрейт : 944 Кбит/сек
Ширина : 640 пикселей
Высота : 368 пикселей
Соотношение сторон : 1,739
Частота кадров : 29,970 кадров/сек
Цветовое пространство : YUV
Субдискретизация насыщенности : 4:2:0
Битовая глубина : 8 бит
Тип развёртки : Прогрессивная
Метод сжатия : С потерями
Бит/(Пиксели*Кадры) : 0.134
Размер потока : 663 Мбайт (74%)
Библиотека кодирования : XviD 1.1.0 (UTC 2005-11-22)

Аудио #1
Идентификатор : 1
Формат : AC-3
Формат/Информация : Audio Coding 3
Расширение режима : CM (complete main)
Параметр Endianness формата : Big
Идентификатор кодека : 2000
Продолжительность : 1 ч. 38 м.
Вид битрейта : Постоянный
Битрейт : 192 Кбит/сек
Каналы : 2 канала
Расположение каналов : Front: L R
Частота : 48,0 КГц
Метод сжатия : С потерями
Размер потока : 135 Мбайт (15%)
Выравнивание : Разделение по промежуткам
Продолжительность промежутка : 33 мс. (1,00 видеокадр)
Время предзагрузки промежутка : 500 мс.

Аудио #2
Идентификатор : 2
Формат : MPEG Audio
Версия формата : Version 1
Профиль формата : Layer 3
Режим : Joint stereo
Расширение режима : MS Stereo
Идентификатор кодека : 55
Идентификатор кодека/Подсказка : MP3
Продолжительность : 1 ч. 38 м.
Вид битрейта : Переменный
Битрейт : 128 Кбит/сек
Каналы : 2 канала
Частота : 48,0 КГц
Метод сжатия : С потерями
Размер потока : 86,3 Мбайт (10%)
Выравнивание : Разделение по промежуткам
Продолжительность промежутка : 33 мс. (1,00 видеокадр)
Время предзагрузки промежутка : 500 мс.
Библиотека кодирования : LAME3.90.
Настройки программы : -m j -V 4 -q 2 -lowpass 17.6 --abr 128


_________________



реклама партнёра


Вернуться к началу
 Профиль Отправить личное сообщение  
 
   Похожие торренты   Автор   Торрент   Размер 
В этой теме нет новых непрочитанных сообщений. Безумный гонщик / Blood Car [Ужасы, комедия, 2007] BDRip, Mvo

salma3

0 | 0

1.46 ГБ

В этой теме нет новых непрочитанных сообщений. С нарушением правил / Breaking the Rules [Комедия, драма, 1992] LDRip, Avo

salma3

2 | 0

1.46 ГБ

В этой теме нет новых непрочитанных сообщений. Скуби-Ду! Лунный безумный монстр (Скуби-Ду! Безумие Лунного Монстра) / Scooby-Doo! Moon Monster Madness (Пол МакЭвой) [Мультфильм, ужасы, детектив, комедия, полнометражный, 2015] WEB-DLRip, Mvo

Dracon

207 | 11

1.37 ГБ

В этой теме нет новых непрочитанных сообщений. Скуби-Ду! Лунный безумный монстр (Скуби-Ду! Безумие Лунного Монстра) / Scooby-Doo! Moon Monster Madness (Пол МакЭвой) [Мультфильм, ужасы, детектив, комедия, полнометражный, 2015] WEB-DL 1080p, Mvo+Sub

Dracon

27 | 6

3.1 ГБ

В этой теме нет новых непрочитанных сообщений. Кровавые игры / Blood Games [Боевик, Триллер, 1990] HDTVRip, Dvo

salma3

0 | 2

1.46 ГБ

В этой теме нет новых непрочитанных сообщений. Кровь невинных / Innocent Blood [ужасы, триллер, комедия, криминал, 1992] DVDRip, Avo

salma3

19 | 0

1.46 ГБ

В этой теме нет новых непрочитанных сообщений. Кровавый выстрел / Blood Shot (Дитрих Джонстон) [Ужасы, Боевик, Комедия, 2013] HDRip, avo

Dracon

7 | 3

1.37 ГБ


Начать новую тему Ответить на тему  [ 1 сообщение ] 




Для Мосгорсуда, Роскомнадзора и рекламодателей:: mosgorsud-torrent[собачка]yandex.ru