Торрент файл
скачать торрент магнет ссылка Добавлен: 10 янв 2016, 15:55
Размер: 1.8 ГБ
Сидеров: 702
Личеров: 89
Статус: (salma3)
Автор

СообщениеДобавлено: 10 янв 2016, 15:55 

Не в сети
Зам. Админа
Аватара пользователя
Дата регистрации:
02 дек 2010, 12:39
Спасибо: 12461 / 214
Сообщения: 27968


Информация о фильме

Название: Ужастики
Оригинальное название: Goosebumps
Год выпуска: 2015
Жанр: Фэнтези, комедия, приключения
Выпущено: США, Австралия, Columbia Pictures, LStar Capital, Original Film
Режиссер: Роб Леттерман
В ролях: Дилан Миннетт, Одейя Раш, Эми Райан, Райан Ли, Джиллиан Белл, Джек Блэк, Кен Марино, Холстон Сейдж, Стивен Крюгер, Кит А. Болден, Аманда Ланд, Тимоти С. Саймонс, Каран Сони, Р.Л. Стайн, Калеб Эмери, Габриэла Фрайле, Нэйт Андраде, Шелдон Браун, Мелисса Брюэр, Маршалл Чока
О фильме: Зак переезжает с родителями в провинциальный городок, где знакомится с очаровательной соседкой Ханной. Он узнает, что ее отец — Роберт Стайн, знаменитый писатель, автор популярной серии триллеров для подростков «Ужастики», у которого есть мрачная тайна. Стайн — пленник собственных историй: монстры из его произведений вполне реальны, и он пишет свои книги для того, чтобы запереть чудовищ на их страницах, защищая своих читателей. По случайному стечению обстоятельств Зак выпускает монстров на волю…

Файл

Качество: WEB-DLRip (AVC)
Видео: MPEG-4 AVC, 2112 Кбит/с, 1024x424, 23.976 кадр/с
Аудио: AC3, 6 ch, 384 Кбит/с
Размер: 1.80 ГБ
Продолжительность: 01:43:17
Перевод: Дублированный
Озвучивание - Дублированное (iTunes Russia)
Сохранены оригинальные чаптеры как на исходном WEB-DL.
x264 [info]: frame I:1624 Avg QP:13.43 size: 56854
x264 [info]: frame P:41110 Avg QP:16.48 size: 20772
x264 [info]: frame B:105865 Avg QP:18.51 size: 6513
x264 [info]: consecutive B-frames: 3.6% 6.0% 9.7% 62.9% 7.7% 8.1% 0.8% 0.5% 0.1% 0.4%
x264 [info]: mb I I16..4: 9.4% 71.9% 18.7%
x264 [info]: mb P I16..4: 1.6% 16.6% 1.8% P16..4: 26.6% 33.9% 10.1% 3.5% 0.3% skip: 5.6%
x264 [info]: mb B I16..4: 0.2% 1.9% 0.2% B16..8: 31.1% 22.9% 4.1% direct: 6.3% skip:33.2% L0:40.1% L1:44.7% BI:15.1%
x264 [info]: 8x8 transform intra:81.1% inter:52.4%
x264 [info]: direct mvs spatial:97.7% temporal:2.3%
x264 [info]: coded y,uvDC,uvAC intra: 87.2% 88.1% 69.5% inter: 23.5% 24.6% 13.5%
x264 [info]: i16 v,h,dc,p: 27% 10% 6% 57%
x264 [info]: i8 v,h,dc,ddl,ddr,vr,hd,vl,hu: 14% 9% 7% 8% 12% 13% 12% 12% 14%
x264 [info]: i4 v,h,dc,ddl,ddr,vr,hd,vl,hu: 16% 9% 6% 8% 13% 13% 12% 10% 12%
x264 [info]: i8c dc,h,v,p: 42% 23% 19% 17%
x264 [info]: Weighted P-Frames: Y:15.0% UV:10.5%
x264 [info]: ref P L0: 55.6% 6.8% 14.9% 7.0% 5.0% 3.6% 2.8% 1.6% 1.2% 1.0% 0.3% 0.0%
x264 [info]: ref B L0: 78.7% 11.9% 4.2% 2.0% 1.3% 0.9% 0.7% 0.3% 0.2%
x264 [info]: ref B L1: 95.9% 4.1%
x264 [info]: kb/s:2111.40


Общее
Уникальный идентификатор : 185726972680248933686686545428619058872 (0x8BB9B6BCAE13BFC7BDD79F502E19DEB8)
Полное имя : D:ЗагрузкиUzastiki.2015.x264.WEB-DLRip.(AVC).ExKinoRay.mkv
Формат : Matroska
Версия формата : Version 2
Размер файла : 1,80 Гбайт
Продолжительность : 1 ч. 43 м.
Общий поток : 2497 Кбит/сек
Название фильма : Ужастики.2015.Rip by: ollan
Дата кодирования : UTC 2016-01-07 07:46:27
Программа кодирования : mkvmerge v5.6.0 ('Kenya Kane') built on May 27 2012 16:44:04
Библиотека кодирования : libebml v1.2.3 + libmatroska v1.3.0

Видео
Идентификатор : 1
Формат : AVC
Формат/Информация : Advanced Video Codec
Профиль формата : High@L4.1
Параметр CABAC формата : Да
Параметр ReFrames формата : 10 кадров
Идентификатор кодека : V_MPEG4/ISO/AVC
Продолжительность : 1 ч. 43 м.
Битрейт : 2112 Кбит/сек
Ширина : 1024 пикселя
Высота : 424 пикселя
Соотношение сторон : 2,40:1
Режим частоты кадров : Постоянный
Частота кадров : 23,976 кадра/сек
Цветовое пространство : YUV
Субдискретизация насыщенности : 4:2:0
Битовая глубина : 8 бит
Тип развёртки : Прогрессивная
Бит/(Пиксели*Кадры) : 0.203
Размер потока : 1,49 Гбайт (83%)
Библиотека кодирования : x264 core 125 r2200 999b753
Настройки программы : cabac=1 / ref=10 / deblock=1:-3:-3 / analyse=0x3:0x133 / me=umh / subme=11 / psy=1 / psy_rd=1.00:0.05 / mixed_ref=1 / me_range=48 / chroma_me=1 / trellis=2 / 8x8dct=1 / cqm=0 / deadzone=21,11 / fast_pskip=0 / chroma_qp_offset=-3 / threads=12 / lookahead_threads=2 / sliced_threads=0 / nr=0 / decimate=0 / interlaced=0 / bluray_compat=0 / constrained_intra=0 / bframes=9 / b_pyramid=2 / b_adapt=2 / b_bias=0 / direct=3 / weightb=1 / open_gop=0 / weightp=2 / keyint=240 / keyint_min=23 / scenecut=40 / intra_refresh=0 / rc=2pass / mbtree=0 / bitrate=2112 / ratetol=1.0 / qcomp=0.60 / qpmin=0 / qpmax=69 / qpstep=4 / cplxblur=20.0 / qblur=0.5 / ip_ratio=1.40 / pb_ratio=1.30 / aq=1:1.00
Язык : English
Default : Да
Forced : Нет

Аудио
Идентификатор : 2
Формат : AC-3
Формат/Информация : Audio Coding 3
Расширение режима : CM (complete main)
Параметр Endianness формата : Big
Идентификатор кодека : A_AC3
Продолжительность : 1 ч. 43 м.
Вид битрейта : Постоянный
Битрейт : 384 Кбит/сек
Каналы : 6 каналов
Расположение каналов : Front: L C R, Side: L R, LFE
Частота : 48,0 КГц
Битовая глубина : 16 бит
Метод сжатия : С потерями
Размер потока : 284 Мбайт (15%)
Заголовок : Дублированный (iTunes Russia)
Язык : Russian
Default : Да
Forced : Нет

Меню
00:00:00.000 : en:Chapter 01
00:05:08.000 : en:Chapter 02
00:11:47.000 : en:Chapter 03
00:17:54.000 : en:Chapter 04
00:23:23.000 : en:Chapter 05
00:31:52.000 : en:Chapter 06
00:38:29.000 : en:Chapter 07
00:44:36.000 : en:Chapter 08
00:51:09.000 : en:Chapter 09
00:57:27.000 : en:Chapter 10
01:03:38.000 : en:Chapter 11
01:06:34.000 : en:Chapter 12
01:12:18.000 : en:Chapter 13
01:20:01.000 : en:Chapter 14
01:24:57.000 : en:Chapter 15
01:31:09.000 : en:Chapter 16








Релиз от: Rip by:




реклама партнёра


Вернуться к началу
 Профиль  
 
   Похожие торренты   Автор   Торрент   Размер 
В этой теме нет новых непрочитанных сообщений. Ужастики / Goosebumps (Роб Леттерман) [2015, фэнтези, комедия, приключения, WEB-DLRip-AVC | iTunes] Dub

Nickolas3435

406 | 3

1.46 ГБ

В этой теме нет новых непрочитанных сообщений. Ужастики / Goosebumps [фэнтези, комедия, приключения, 2015] HDRip, dub [iTunes]

Dracon

7138 | 604

1.37 ГБ

В этой теме нет новых непрочитанных сообщений. Ужастики / Goosebumps [фэнтези, комедия, приключения, 2015] WEB-DL 720p, dub [iTunes]

Dracon

4063 | 66

3.18 ГБ

В этой теме нет новых непрочитанных сообщений. Ужастики / Goosebumps [фэнтези, комедия, приключения, 2015] WEB-DL 1080p, dub [iTunes]

Dracon

2724 | 55

3.63 ГБ

В этой теме нет новых непрочитанных сообщений. Ужастики / Goosebumps [фэнтези, комедия, приключения, 2015] BDRip-AVC, Dub+Sub [iTunes]

Dracon

736 | 74

2.14 ГБ

В этой теме нет новых непрочитанных сообщений. Ужастики / Goosebumps [фэнтези, комедия, приключения, 2015] BDRip 720p, dub [iTunes]

Dracon

1139 | 55

4.65 ГБ

В этой теме нет новых непрочитанных сообщений. Ужастики / Goosebumps [фэнтези, комедия, приключения, 2015] BDRip 1080p, dub [iTunes]

Dracon

2014 | 132

7.93 ГБ


Начать новую тему Ответить на тему  [ 1 сообщение ] 




Для Мосгорсуда, Роскомнадзора и рекламодателей:: mosgorsud-torrent[собачка]yandex.ru