Торрент файл
скачать торрент магнет ссылка Добавлен: 09 янв 2016, 21:44
Размер: 2.18 ГБ
Сидеров: 296
Личеров: 60
Статус: (salma3)
Автор

СообщениеДобавлено: 09 янв 2016, 21:44 

Не в сети
Зам. Админа
Аватара пользователя
Дата регистрации:
02 дек 2010, 12:39
Спасибо: 12623 / 214
Сообщения: 28012
Бесконечно белый медведь
Infinitely Polar Bear


Страна: США
Жанр: драма, комедия

Год выпуска: 2014
Продолжительность: 01:28:00

Перевод: Профессиональный (многоголосый, закадровый) [Лицензия BD CEE]
Субтитры: русские, английские
Оригинальная аудиодорожка: английский

Режиссер: Майя Форбс / Maya Forbes

В ролях: Зои Салдана, Марк Руффало, Кейр Дуллеа, Уоллес Володарски, Имоджин Володарски, Ashley Aufderheide, Мэри О’Рурк, Брианн Брози, Адам В. Майэрсон, Уильям Ксифарас, Джорджия Лиман, Бет Диксон

Описание:
Кэмерон пытается вернуть свою жену Мэгги. Ради этого он пробует взять на себя полную ответственность за их двух молодых дочерей, которые отнюдь не стараются облегчить ему задачу.

Релиз:

Автор рипа: Stalker oK

Сэмпл

Качество видео: BDRip-AVC [BLUEBIRD / 4FR / Blu-ray Disc / 1080p]
Формат видео: MKV
Видео кодек: AVC
Аудио кодек: AC3
Видео: 2653 Кбит/сек, 1056*594 (16:9), в 23,976 (24000/1001) кадра/сек, AVC
Аудио #1: Russian, 448 Кбит/сек, 48,0 КГц, 6 каналов, AC-3
Аудио #2: English, 448 Кбит/сек, 48,0 КГц, 6 каналов, AC-3
Навигация по главам: есть


Общее
Уникальный идентификатор : 219669473297068996438488911190597092624 (0xA542CD38DF6E7D03B6C46AC3E9D8C510)
Полное имя : M:Rips2Infinitely Polar BearInfinitely.Polar.Bear.2014.BDRip-AVC.MVO.2.18Gb.stalkerok.new-team.mkv
Формат : Matroska
Версия формата : Version 4 / Version 2
Размер файла : 2,18 Гбайт
Продолжительность : 1 ч. 28 м.
Общий поток : 3552 Кбит/сек
Название фильма : Infinitely Polar Bear (2014) (New-Team) (Rip by Stalker oK)
Дата кодирования : UTC 2016-01-09 10:52:51
Программа кодирования : mkvmerge v8.6.1 ('Flying') 64bit
Библиотека кодирования : libebml v1.3.3 + libmatroska v1.4.4

Видео
Идентификатор : 4
Формат : AVC
Формат/Информация : Advanced Video Codec
Профиль формата : High@L4.1
Параметр CABAC формата : Да
Параметр ReFrames формата : 13 кадров
Идентификатор кодека : V_MPEG4/ISO/AVC
Продолжительность : 1 ч. 28 м.
Битрейт : 2653 Кбит/сек
Ширина : 1056 пикселей
Высота : 594 пикселя
Соотношение сторон : 16:9
Режим частоты кадров : Постоянный
Частота кадров : 23,976 (24000/1001) кадра/сек
Цветовое пространство : YUV
Субдискретизация насыщенности : 4:2:0
Битовая глубина : 8 бит
Тип развёртки : Прогрессивная
Бит/(Пиксели*Кадры) : 0.176
Размер потока : 1,63 Гбайт (75%)
Заголовок : Infinitely Polar Bear (2014) (New-Team) (Rip by Stalker oK)
Библиотека кодирования : x264 core 148 r2638kMod 7599210
Настройки программы : cabac=1 / ref=13 / deblock=1:-3:-3 / analyse=0x3:0x133 / me=umh / subme=11 / psy=1 / fade_compensate=0.00 / psy_rd=1.00:0.10 / mixed_ref=1 / me_range=48 / chroma_me=1 / trellis=2 / 8x8dct=1 / cqm=0 / deadzone=21,11 / fast_pskip=0 / chroma_qp_offset=-3 / threads=12 / lookahead_threads=3 / sliced_threads=0 / nr=0 / decimate=0 / interlaced=0 / bluray_compat=0 / constrained_intra=0 / fgo=0 / bframes=15 / b_pyramid=2 / b_adapt=2 / b_bias=0 / direct=3 / weightb=1 / open_gop=0 / weightp=2 / keyint=240 / keyint_min=23 / scenecut=40 / intra_refresh=0 / rc_lookahead=60 / rc=2pass / mbtree=0 / bitrate=2653 / ratetol=1.0 / qcomp=0.70 / qpmin=0 / qpmax=69 / qpstep=4 / cplxblur=20.0 / qblur=0.5 / vbv_maxrate=50000 / vbv_bufsize=62500 / nal_hrd=none / filler=0 / ip_ratio=1.40 / pb_ratio=1.30 / aq=3:0.90
Default : Да
Forced : Нет

Аудио #1
Идентификатор : 1
Формат : AC-3
Формат/Информация : Audio Coding 3
Расширение режима : CM (complete main)
Параметр Endianness формата : Big
Идентификатор кодека : A_AC3
Продолжительность : 1 ч. 28 м.
Вид битрейта : Постоянный
Битрейт : 448 Кбит/сек
Каналы : 6 каналов
Расположение каналов : Front: L C R, Side: L R, LFE
Частота : 48,0 КГц
Частота кадров : 31,250 кадров/сек (1536 spf)
Метод сжатия : С потерями
Размер потока : 282 Мбайт (13%)
Язык : Russian
Default : Да
Forced : Нет

Аудио #2
Идентификатор : 5
Формат : AC-3
Формат/Информация : Audio Coding 3
Расширение режима : CM (complete main)
Параметр Endianness формата : Big
Идентификатор кодека : A_AC3
Продолжительность : 1 ч. 28 м.
Вид битрейта : Постоянный
Битрейт : 448 Кбит/сек
Каналы : 6 каналов
Расположение каналов : Front: L C R, Side: L R, LFE
Частота : 48,0 КГц
Частота кадров : 31,250 кадров/сек (1536 spf)
Метод сжатия : С потерями
Размер потока : 282 Мбайт (13%)
Язык : English
Default : Нет
Forced : Нет

Текст #1
Идентификатор : 2
Формат : UTF-8
Идентификатор кодека : S_TEXT/UTF8
Идентификатор кодека/Информация : UTF-8 Plain Text
Продолжительность : 1 ч. 23 м.
Битрейт : 111 бит/сек
Count of elements : 1138
Размер потока : 68,3 Кбайт (0%)
Язык : Russian
Default : Нет
Forced : Нет

Текст #2
Идентификатор : 3
Формат : UTF-8
Идентификатор кодека : S_TEXT/UTF8
Идентификатор кодека/Информация : UTF-8 Plain Text
Продолжительность : 1 ч. 27 м.
Битрейт : 74 бит/сек
Count of elements : 1349
Размер потока : 47,5 Кбайт (0%)
Язык : English
Default : Нет
Forced : Нет

Меню
00:00:00.000 : en:Chapter 1
00:06:18.378 : en:Chapter 2
00:09:38.661 : en:Chapter 3
00:13:21.217 : en:Chapter 4
00:17:34.094 : en:Chapter 5
00:20:57.464 : en:Chapter 6
00:24:25.422 : en:Chapter 7
00:30:03.009 : en:Chapter 8
00:33:41.561 : en:Chapter 9
00:38:13.582 : en:Chapter 10
00:43:01.370 : en:Chapter 11
00:47:36.186 : en:Chapter 12
00:53:01.428 : en:Chapter 13
01:03:15.333 : en:Chapter 14
01:11:06.303 : en:Chapter 15
01:18:11.311 : en:Chapter 16








реклама партнёра


Вернуться к началу
 Профиль  
 
   Похожие торренты   Автор   Торрент   Размер 
В этой теме нет новых непрочитанных сообщений. Бесконечно белый медведь / Infinitely Polar Bear [Драма, комедия, 2014] BDRip 720p, Mvo [Лицензия]

Dracon

520 | 69

5.63 ГБ

В этой теме нет новых непрочитанных сообщений. Бесконечно белый медведь / Infinitely Polar Bear [Драма, комедия, 2014] BDRip 1080p, Mvo [Лицензия]

Dracon

302 | 59

10.52 ГБ

В этой теме нет новых непрочитанных сообщений. Бесконечно белый медведь / Infinitely Polar Bear [Драма, комедия, 2014] HDRip, Mvo

Dracon

275 | 5

1.37 ГБ

В этой теме нет новых непрочитанных сообщений. Медведь Йоги / Yogi Bear [Мультфильм, комедия, приключения, семейный, 2010] BDRip 720р, Dub

salma3

0 | 0

4.1 ГБ

В этой теме нет новых непрочитанных сообщений. Джек-медведь / Jack the Bear [драма, 1993] HDTVRip 720p, Mvo

salma3

26 | 0

4.33 ГБ

В этой теме нет новых непрочитанных сообщений. Влюбленные и медведь / Two Lovers and a Bear [Драма, мелодрама, 2016] WEB-DLRip, Mvo [iTunes]

salma3

0 | 13

1.46 ГБ

В этой теме нет новых непрочитанных сообщений. Влюбленные и медведь / Two Lovers and a Bear [Драма, мелодрама, 2016] WEB-DL 1080p, Mvo [iTunes]

salma3

122 | 10

3.59 ГБ


Начать новую тему Ответить на тему  [ 1 сообщение ] 




Для Мосгорсуда, Роскомнадзора и рекламодателей:: mosgorsud-torrent[собачка]yandex.ru