Торрент файл
скачать торрент магнет ссылка Добавлен: 12 мар 2016, 12:30
Размер: 1.46 ГБ
Сидеров: 348
Личеров: 13
Статус: (salma3)
Автор

СообщениеДобавлено: 08 янв 2016, 12:30 

Не в сети
Зам. Админа
Аватара пользователя
Дата регистрации:
02 дек 2010, 12:39
Спасибо: 12461 / 214
Сообщения: 27968
Год выпуска: 2015
Страна: США
Жанр: драма, биография, музыка

Перевод: Дубляж [лицензия]
Продолжительность: 02:26:38

Режиссер: Ф. Гэри Грей

В ролях: О’Ши Джексон мл. (Ice Cube), Кори Хоукинс (Dr. Dre), Джейсон Митчелл (Eazy-E), Нил Браун мл. (Dj Yella), Элдис Ходж (MC Ren), Марлон Йэтс мл. (The D.O.C), Р. Маркус Тейлор (Suge Knight), Карра Паттерсон (Tomica), Александра Шипп (Kim), Пол Джаматти (Jerry Heller), Елена Гуд (Nicole), Кит Пауэрс (Tyree)



Описание:
История группы N.W.A. из Комптона, штат Калифорния, которая в середине 1980-х произвела революцию в хип-хоп музыке.


Рейтинг:
MPAA: R - Лицам до 17 лет обязательно присутствие взрослого


Качество: BDRip-AVC [Blu-Ray Remux 1080p]
Формат: MKV
Видео: AVC, 1024x426 (2.40:1), 1745 kbps, 23,976 fps, 0,167 bpp
Аудио: AC3 / 5.1 / 48 kHz / 384 kbps / 16 bit


General
Unique ID : 226943113167388177266945962282925877809 (0xAABBA75AFD8B3BAD821FC269AB3EEA31)
Complete name : D:downloadG0l0C.UL1c.2015.BDRip-AVC by schultz R.G.Resident.mkv
Format : Matroska
Format version : Version 2
File size : 2.18 GiB
Duration : 2h 26mn
Overall bit rate : 2 130 Kbps
Encoded date : UTC 2016-01-07 22:33:27
Writing application : mkvmerge v6.1.0 ('Old Devil') built on Mar 4 2013 09:10:42
Writing library : libebml v1.3.0 + libmatroska v1.4.0

Video
ID : 1
Format : AVC
Format/Info : Advanced Video Codec
Format profile : High@L4.1
Format settings, CABAC : Yes
Format settings, ReFrames : 12 frames
Codec ID : V_MPEG4/ISO/AVC
Duration : 2h 26mn
Bit rate : 1 745 Kbps
Width : 1 024 pixels
Height : 426 pixels
Display aspect ratio : 2.40:1
Frame rate : 23.976 fps
Color space : YUV
Chroma subsampling : 4:2:0
Bit depth : 8 bits
Scan type : Progressive
Bits/(Pixel*Frame) : 0.167
Stream size : 1.75 GiB (80%)
Writing library : x264 core 130 r2273 b3065e6
Encoding settings : cabac=1 / ref=12 / deblock=1:-3:-3 / analyse=0x3:0x113 / me=umh / subme=11 / psy=1 / psy_rd=1.00:0.10 / mixed_ref=1 / me_range=48 / chroma_me=1 / trellis=2 / 8x8dct=1 / cqm=0 / deadzone=21,11 / fast_pskip=0 / chroma_qp_offset=-3 / threads=12 / lookahead_threads=3 / sliced_threads=0 / nr=0 / decimate=1 / interlaced=0 / bluray_compat=0 / constrained_intra=0 / bframes=13 / b_pyramid=2 / b_adapt=2 / b_bias=0 / direct=3 / weightb=1 / open_gop=0 / weightp=2 / keyint=240 / keyint_min=24 / scenecut=40 / intra_refresh=0 / rc_lookahead=40 / rc=2pass / mbtree=0 / bitrate=1745 / ratetol=1.0 / qcomp=0.60 / qpmin=0 / qpmax=69 / qpstep=4 / cplxblur=20.0 / qblur=0.5 / vbv_maxrate=14000 / vbv_bufsize=14000 / nal_hrd=none / ip_ratio=1.40 / pb_ratio=1.30 / aq=1:0.80
Default : Yes
Forced : No

Audio
ID : 2
Format : AC-3
Format/Info : Audio Coding 3
Mode extension : CM (complete main)
Codec ID : A_AC3
Duration : 2h 26mn
Bit rate mode : Constant
Bit rate : 384 Kbps
Channel(s) : 6 channels
Channel positions : Front: L C R, Side: L R, LFE
Sampling rate : 48.0 KHz
Bit depth : 16 bits
Compression mode : Lossy
Stream size : 403 MiB (18%)
Default : Yes
Forced : No






реклама партнёра


Вернуться к началу
 Профиль  
 
   Похожие торренты   Автор   Торрент   Размер 
В этой теме нет новых непрочитанных сообщений. Голос улиц / Straight Outta Compton (Ф. Гэри Грей) [драма, биография, музыка, 2015] BDRip 720p, Dub [iTunes | Theatrical Cut]

Dracon

5167 | 283

3.7 ГБ

В этой теме нет новых непрочитанных сообщений. Голос улиц / Straight Outta Compton (Ф. Гэри Грей) [драма, биография, музыка, 2015] WEBRip 720p, avo+sub

Dracon

2804 | 149

4.45 ГБ

В этой теме нет новых непрочитанных сообщений. Голос улиц / Straight Outta Compton (Ф. Гэри Грей) [драма, биография, музыка, 2015] HDRip, Dub [iTunes]

Dracon

6073 | 288

2.05 ГБ

В этой теме нет новых непрочитанных сообщений. Идеальный голос 2 / Pitch Perfect 2 (Элизабет Бэнкс) [комедия, музыка, 2015] BDRip 720p, Dub+Sub [Лицензия]

Dracon

257 | 32

5.68 ГБ

В этой теме нет новых непрочитанных сообщений. Идеальный голос 2 / Pitch Perfect 2 (Элизабет Бэнкс) [комедия, музыка, 2015] BDRip 1080p, Dub+Sub [Blu-ray CEE]

Dracon

112 | 10

12.42 ГБ

В этой теме нет новых непрочитанных сообщений. Джеймс Браун: Путь наверх / Get on Up (Тейт Тейлор) [2014, Драма, биография, музыка, BDRip | Лицензия] Dub

Nickolas3435

130 | 5

2.56 ГБ

В этой теме нет новых непрочитанных сообщений. Джеймс Браун: Путь наверх / Get on Up (Тейт Тейлор) [2014, Драма, биография, музыка, BDRip 720p | Лицензия] Dub

Nickolas3435

36 | 3

9.73 ГБ


СообщениеДобавлено: 12 мар 2016, 12:30 

Не в сети
Супермодератор
Аватара пользователя
Дата регистрации:
15 фев 2012, 16:44
Возраст: 27
Спасибо: 5139 / 2090
Сообщения: 17443
Dracon писал(а):
Re: Голос улиц / Straight Outta Compton (Ф. Гэри Грей) [драма, биография, музыка, 2015] BDRip-AVC, Dub [лицензия]

_________________


Вернуться к началу
 Профиль Отправить личное сообщение  
 
Начать новую тему Ответить на тему  [ Сообщений: 2 ] 




Для Мосгорсуда, Роскомнадзора и рекламодателей:: mosgorsud-torrent[собачка]yandex.ru