Торрент файл
скачать торрент магнет ссылка Добавлен: 07 янв 2016, 20:45
Размер: 1.97 ГБ
Сидеров: 26
Личеров: 2
Статус: (salma3)
Автор

СообщениеДобавлено: 07 янв 2016, 20:45 

Не в сети
Супермодератор
Аватара пользователя
Дата регистрации:
15 фев 2012, 16:44
Возраст: 27
Спасибо: 5139 / 2089
Сообщения: 17432
Коготь тигра 2 / Tiger Claws II

Год выпуска: 1996
Жанр: боевик
Режиссер: Дж. Стивен Мондер

В ролях: Джалал Мерхи, Боло Йенг, Синтия Ротрок, Онг Су Хань, Эван Лёри, Эрик Ли, Поль Раповски, Майк Чоу, Брэд Милн, Р.Дж. Фехер...

Описание:
Бандитская шайка помогает Чонгу бежать из тюрьмы. Убийства со страшными следами лапы тигра возобновились, и полицейские Терек и Линда опять в погоне за преступником.
По древнему поверью самые достойные бойцы «тигрового стиля» могут попасть в священный храм прошлого и там воссоединиться с предками. Для этого в полночь назначен турнир по рукопашному бою. Среди лучших бойцов оказывается Терек. Кому из них удастся обрести бессмертие в древней стране, а кому суждено погибнуть — это решит жестокий поединок…



Страна: Канада
Продолжительность: 01:28:29
Перевод: Авторский (одноголосый закадровый) [Михаил, Иванов]

Файл
Качество: DVDRip-AVC
Формат файла: MKV
Видео кодек: H.264
Аудио кодек: AC3
Видео: 720x540 (4:3), 23,976 fps, MPEG4 AVC (х264) ,~3000 Kbps, 0.322 bit/pixel
Аудио: 48 KHz, AC-3 Dolby Digital 2 (L R), ~192 kbps



Общее
Уникальный идентификатор : 209736356603603925956827698001905143529 (0x9DC9C0C20C9958B4AFD7F38EBD6B4EE9)
Полное имя : E:\Закачка-2\Коготь тигра II [Tiger Claws II, 1996].mkv
Формат : Matroska
Версия формата : Version 2
Размер файла : 1,97 Гбайт
Продолжительность : 1 ч. 28 м.
Общий поток : 3194 Кбит/сек
Дата кодирования : UTC 2015-11-14 19:41:02
Программа кодирования : mkvmerge v5.2.1 ('A Far Off Place') built on Jan 2 2012 23:21:10
Библиотека кодирования : libebml v1.2.3 + libmatroska v1.3.0

Видео
Идентификатор : 1
Формат : AVC
Формат/Информация : Advanced Video Codec
Профиль формата :
Параметр CABAC формата : Да
Параметр ReFrames формата : 4 кадра
Идентификатор кодека : V_MPEG4/ISO/AVC
Продолжительность : 1 ч. 28 м.
Битрейт : 3000 Кбит/сек
Ширина : 720 пикселей
Высота : 540 пикселей
Соотношение сторон : 4:3
Режим частоты кадров : Постоянный
Частота кадров : 23,976 кадра/сек
Цветовое пространство : YUV
Субдискретизация насыщенности : 4:2:0
Битовая глубина : 8 бит
Тип развёртки : Прогрессивная
Бит/(Пиксели*Кадры) : 0.322
Размер потока : 1,82 Гбайт (92%)
Библиотека кодирования : x264 core 120 r2164 da19765
Настройки программы : cabac=1 / ref=3 / deblock=1:0:0 / analyse=0x3:0x113 / me=hex / subme=7 / psy=1 / psy_rd=1.00:0.00 / mixed_ref=1 / me_range=16 / chroma_me=1 / trellis=1 / 8x8dct=1 / cqm=0 / deadzone=21,11 / fast_pskip=1 / chroma_qp_offset=-2 / threads=3 / sliced_threads=0 / nr=0 / decimate=1 / interlaced=0 / bluray_compat=0 / constrained_intra=0 / bframes=3 / b_pyramid=2 / b_adapt=1 / b_bias=0 / direct=1 / weightb=1 / open_gop=0 / weightp=2 / keyint=240 / keyint_min=23 / scenecut=40 / intra_refresh=0 / rc_lookahead=40 / rc=2pass / mbtree=1 / bitrate=3000 / ratetol=1.0 / qcomp=0.60 / qpmin=0 / qpmax=51 / qpstep=4 / cplxblur=20.0 / qblur=0.5 / ip_ratio=1.40 / aq=1:1.00
Язык : English
Default : Да
Forced : Нет

Аудио
Идентификатор : 2
Формат : AC-3
Формат/Информация : Audio Coding 3
Профиль формата : Dolby Digital
Расширение режима : CM (complete main)
Параметр Endianness формата : Big
Идентификатор кодека : A_AC3
Продолжительность : 1 ч. 28 м.
Вид битрейта : Постоянный
Битрейт : 192 Кбит/сек
Каналы : 2 канала
Расположение каналов : Front: L R
Частота : 48,0 КГц
Битовая глубина : 16 бит
Метод сжатия : С потерями
Размер потока : 122 Мбайт (6%)
Default : Да
Forced : Нет



_________________



реклама партнёра


Вернуться к началу
 Профиль Отправить личное сообщение  
 
   Похожие торренты   Автор   Торрент   Размер 
В этой теме нет новых непрочитанных сообщений. Коготь тигра / Tiger Claws [боевик, 1991] DVDRip-AVC, Avo

salma3

31 | 6

2.06 ГБ

В этой теме нет новых непрочитанных сообщений. Сердце тигра / Tiger Heart [боевик, комедия, приключения, 1996] DVDRip, Dvo+Avo

salma3

65 | 13

1.45 ГБ

В этой теме нет новых непрочитанных сообщений. Глаз тигра / Eye of the Tiger [боевик, 1986] DVDRip, Dvo

salma3

9 | 3

1.46 ГБ

В этой теме нет новых непрочитанных сообщений. Команда Тигра и гора 1000 драконов / Tiger Team - Der Berg der 1000 Drachen (Петер Герсина) [2010, приключения, семейный, DVDrip] Dub

Nickolas3435

21 | 1

1.38 ГБ

В этой теме нет новых непрочитанных сообщений. Синбад и глаз тигра / Sinbad and the Eye of the Tiger [Фэнтези, приключения, 1977] BDRemux 1080p, Mvo+3Avo+Sub

salma3

14 | 4

35.79 ГБ

В этой теме нет новых непрочитанных сообщений. Голубой тигр / Якудза / Blue Tiger [Боевик, 1994] DVDRip, Mvo+Avo

salma3

29 | 7

1.46 ГБ

В этой теме нет новых непрочитанных сообщений. Клетка тигра 2 / Sai hak chin [Боевик, комедия, 1990] BDRip 1080p, Avo

salma3

0 | 0

7.98 ГБ


Начать новую тему Ответить на тему  [ 1 сообщение ] 




Для Мосгорсуда, Роскомнадзора и рекламодателей:: mosgorsud-torrent[собачка]yandex.ru