Торрент файл
скачать торрент магнет ссылка Добавлен: 07 янв 2016, 20:28
Размер: 2.06 ГБ
Сидеров: 31
Личеров: 6
Статус: (salma3)
Автор

СообщениеДобавлено: 07 янв 2016, 20:28 

Не в сети
Супермодератор
Аватара пользователя
Дата регистрации:
15 фев 2012, 16:44
Возраст: 27
Спасибо: 5139 / 2090
Сообщения: 17432
Коготь тигра / Tiger Claws

Год выпуска: 1991
Жанр: боевик
Режиссер: Келли Макин

В ролях: Синтия Ротрок, Джалал Мерхи, Боло Йенг, Ник Дибли, Ферн Фигуередо, Джек Ворвис, Лиза-Мари Томас, Франц Фридал, Роберт Нолан, Кедар Браун

Описание:
Полицейские Терек Ричардс и Линда Мэстерсон упорно идут по следу преступника с характерным почерком: на щеке зверски убитых людей, а убитые — чемпионы-каратисты, имитация когтей тигриной лапы. Поиски убийцы приводят полицейских в закрытую школу карате, где одним из лучших мастеров в стиле «Коготь тигра» считался Чонг.



Страна: Канада, США
Продолжительность: 01:32:26
Перевод: Авторский (одноголосый) [Андрей, Гаврилов]

Файл
Качество: DVDRip-AVC
Формат файла: MKV
Видео кодек: H.264
Аудио кодек: AC3
Видео: 720x480 (4:3), 23,976 fps, MPEG4 AVC (х264) ,~3000 Kbps, 0.362 bit/pixel
Аудио: 48 KHz, AC-3 Dolby Digital 2 (L R), ~192 kbps


Общее
Уникальный идентификатор : 172217555404383567854177332368133587390 (0x818FE50A6B86FB3B916B2C1EA4C001BE)
Полное имя : E:\Закачка-2\Коготь тигра [Tiger Claws, 1991].mkv
Формат : Matroska
Версия формата : Version 2
Размер файла : 2,06 Гбайт
Продолжительность : 1 ч. 32 м.
Общий поток : 3193 Кбит/сек
Дата кодирования : UTC 2015-12-18 16:28:28
Программа кодирования : mkvmerge v5.2.1 ('A Far Off Place') built on Jan 2 2012 23:21:10
Библиотека кодирования : libebml v1.2.3 + libmatroska v1.3.0

Видео
Идентификатор : 1
Формат : AVC
Формат/Информация : Advanced Video Codec
Профиль формата :
Параметр CABAC формата : Да
Параметр ReFrames формата : 4 кадра
Режим смешивания : Header stripping
Идентификатор кодека : V_MPEG4/ISO/AVC
Продолжительность : 1 ч. 32 м.
Битрейт : 3000 Кбит/сек
Ширина : 720 пикселей
Высота : 480 пикселей
Соотношение сторон : 4:3
Соотношение сторон в оригинале : 4:3
Режим частоты кадров : Постоянный
Частота кадров : 23,976 кадра/сек
Стандарт вещания : NTSC
Цветовое пространство : YUV
Субдискретизация насыщенности : 4:2:0
Битовая глубина : 8 бит
Тип развёртки : Прогрессивная
Бит/(Пиксели*Кадры) : 0.362
Размер потока : 1,90 Гбайт (92%)
Библиотека кодирования : x264 core 120 r2164 da19765
Настройки программы : cabac=1 / ref=3 / deblock=1:0:0 / analyse=0x3:0x113 / me=hex / subme=7 / psy=1 / psy_rd=1.00:0.00 / mixed_ref=1 / me_range=16 / chroma_me=1 / trellis=1 / 8x8dct=1 / cqm=0 / deadzone=21,11 / fast_pskip=1 / chroma_qp_offset=-2 / threads=3 / sliced_threads=0 / nr=0 / decimate=1 / interlaced=0 / bluray_compat=0 / constrained_intra=0 / bframes=3 / b_pyramid=2 / b_adapt=1 / b_bias=0 / direct=1 / weightb=1 / open_gop=0 / weightp=2 / keyint=240 / keyint_min=23 / scenecut=40 / intra_refresh=0 / rc_lookahead=40 / rc=2pass / mbtree=1 / bitrate=3000 / ratetol=1.0 / qcomp=0.60 / qpmin=0 / qpmax=51 / qpstep=4 / cplxblur=20.0 / qblur=0.5 / ip_ratio=1.40 / aq=1:1.00
Язык : English
Default : Да
Forced : Нет

Аудио
Идентификатор : 2
Формат : AC-3
Формат/Информация : Audio Coding 3
Профиль формата : Dolby Digital
Расширение режима : CM (complete main)
Параметр Endianness формата : Big
Режим смешивания : Header stripping
Идентификатор кодека : A_AC3
Продолжительность : 1 ч. 32 м.
Вид битрейта : Постоянный
Битрейт : 192 Кбит/сек
Каналы : 2 канала
Расположение каналов : Front: L R
Частота : 48,0 КГц
Битовая глубина : 16 бит
Метод сжатия : С потерями
Размер потока : 127 Мбайт (6%)
Язык : Russian
Default : Да
Forced : Нет




_________________



реклама партнёра


Вернуться к началу
 Профиль Отправить личное сообщение  
 
   Похожие торренты   Автор   Торрент   Размер 
В этой теме нет новых непрочитанных сообщений. Коготь тигра 2 / Tiger Claws II [боевик, 1996] DVDRip-AVC, Avo

salma3

26 | 2

1.97 ГБ

В этой теме нет новых непрочитанных сообщений. Глаз тигра / Eye of the Tiger [боевик, 1986] DVDRip, Dvo

salma3

9 | 3

1.46 ГБ

В этой теме нет новых непрочитанных сообщений. Сердце тигра / Tiger Heart [боевик, комедия, приключения, 1996] DVDRip, Dvo+Avo

salma3

65 | 13

1.45 ГБ

В этой теме нет новых непрочитанных сообщений. Команда Тигра и гора 1000 драконов / Tiger Team - Der Berg der 1000 Drachen (Петер Герсина) [2010, приключения, семейный, DVDrip] Dub

Nickolas3435

21 | 1

1.38 ГБ

В этой теме нет новых непрочитанных сообщений. Синбад и глаз тигра / Sinbad and the Eye of the Tiger [Фэнтези, приключения, 1977] BDRemux 1080p, Mvo+3Avo+Sub

salma3

14 | 4

35.79 ГБ

В этой теме нет новых непрочитанных сообщений. Ice Tiger - Love'N'Crime [1991, Hard Rock, MP3]

PriZraK

0 | 1

89.39 МБ

В этой теме нет новых непрочитанных сообщений. Голубой тигр / Якудза / Blue Tiger [Боевик, 1994] DVDRip, Mvo+Avo

salma3

29 | 7

1.46 ГБ


Начать новую тему Ответить на тему  [ 1 сообщение ] 




Для Мосгорсуда, Роскомнадзора и рекламодателей:: mosgorsud-torrent[собачка]yandex.ru