Торрент файл
скачать торрент магнет ссылка Добавлен: 07 янв 2016, 16:03
Размер: 1.37 ГБ
Сидеров: 1
Личеров: 0
Статус: (salma3)
Автор

СообщениеДобавлено: 07 янв 2016, 16:03 

Не в сети
Супермодератор
Аватара пользователя
Дата регистрации:
15 фев 2012, 16:44
Возраст: 27
Спасибо: 5135 / 2089
Сообщения: 17406
Где деньги, Норин? / Where's the Money, Noreen?

Год выпуска: 1995
Жанр: триллер
Режиссер: Арти Мандельберг / Artie Mandelberg

В ролях: Джулианна Филлипс, Эй Мартинез (сериал "Санта Барбара"), Найджел Беннетт, Нэнси Уоррен, Джереми Рэтчфорд, Саймон Рейнольдс, Колм Фиоре

Описание: Норин помогает своему брату совершить ограбление, но им не везет - их ловит полиция. Норин сажают в тюрьму, деньги исчезают. 12 лет спустя ее выпускают досрочно, и все начинают интересоваться тем, куда делись украденные 3 миллиона. Но проблема в том, что Норин сама об этом ничего не знает. И она начинает расследование...

Страна: Канада, США
Продолжительность: 01:31:08
Перевод: Авторский (одноголосый закадровый) [Сергей Визгунов]

Файл
Качество: VHSRip
Формат файла: AVI
Видео кодек: XviD
Аудио кодек: AC3
Видео: 640x480 (1.33:1), 25 fps, XviD build 73 ~1945 kbps avg, 0.25 bit/pixel
Аудио: 48 kHz, AC3 Dolby Digital, 2/0 (L,R) ch, ~192 kbps


Сэмпл:

Где деньги, Норин - Where's the Money, Noreen [by Edich2].avi
Format : AVI
Format/Info : Audio Video Interleave
File size : 1.37 GiB
Duration : 1h 31mn
Overall bit rate : 2 147 Kbps
Movie name : Где деньги, Норин - Where's the Money, Noreen [by Edich2]
Director : by Edich2
Writing application : Nandub v1.0rc2
Comment : RuTracker.org

Video
ID : 0
Format : MPEG-4 Visual
Format profile : Advanced Simple@L5
Format settings, BVOP : 1
Format settings, QPel : No
Format settings, GMC : No warppoints
Format settings, Matrix : Default (MPEG)
Codec ID : XVID
Codec ID/Hint : XviD
Duration : 1h 31mn
Bit rate : 1 946 Kbps
Width : 640 pixels
Height : 480 pixels
Display aspect ratio : 4:3
Frame rate : 25.000 fps
Color space : YUV
Chroma subsampling : 4:2:0
Bit depth : 8 bits
Scan type : Progressive
Compression mode : Lossy
Bits/(Pixel*Frame) : 0.253
Stream size : 1.24 GiB (91%)
Writing library : XviD 73

Audio
ID : 1
Format : AC-3
Format/Info : Audio Coding 3
Mode extension : CM (complete main)
Format settings, Endianness : Big
Codec ID : 2000
Duration : 1h 30mn
Bit rate mode : Constant
Bit rate : 192 Kbps
Channel(s) : 2 channels
Channel positions : Front: L R
Sampling rate : 48.0 KHz
Bit depth : 16 bits
Compression mode : Lossy
Delay relative to video : 4ms
Stream size : 125 MiB (9%)
Alignment : Split accross interleaves
Interleave, duration : 40 ms (1.00 video frame)
Interleave, preload duration : 500 ms


Релиз Доп. информация: За VHS (из личной коллекции) спасибо Анна57


_________________



реклама партнёра


Вернуться к началу
 Профиль Отправить личное сообщение  
 
   Похожие торренты   Автор   Торрент   Размер 
В этой теме нет новых непрочитанных сообщений. Тяжелые деньги / Трудные деньги / Run for the Money / Hard Cash [Боевик, триллер, криминал. 2002] WEB-DLRip, Mvo

salma3

44 | 27

1.46 ГБ

В этой теме нет новых непрочитанных сообщений. Деньги, деньги, еще деньги / Больше денег / Mo' Money [Комедия, 1992] WEB-DLRip, Avo

salma3

16 | 6

1.46 ГБ

В этой теме нет новых непрочитанных сообщений. Деньги / Money [триллер, криминал, 2016] HDRip, Mvo

salma3

319 | 32

1.37 ГБ

В этой теме нет новых непрочитанных сообщений. Деньги на двоих / Two for the Money [триллер, драма, спорт, 2005] BDRemux 1080p, Dub

salma3

14 | 8

29.65 ГБ

В этой теме нет новых непрочитанных сообщений. Dirty Money / Грязные Деньги (2016) DVDRip

Dile-1

0 | 0

1.04 ГБ

В этой теме нет новых непрочитанных сообщений. Легкие деньги / Easy Money [комедия, 1983] BDRip, Mvo

salma3

19 | 1

1.45 ГБ

В этой теме нет новых непрочитанных сообщений. Деньги решают все / Money Talks [комедия, боевик, 1997] WEB-DLRip, Mvo

salma3

89 | 6

1.46 ГБ


Начать новую тему Ответить на тему  [ 1 сообщение ] 




Для Мосгорсуда, Роскомнадзора и рекламодателей:: mosgorsud-torrent[собачка]yandex.ru