Торрент файл
скачать торрент магнет ссылка Добавлен: 07 янв 2016, 15:41
Размер: 2.88 ГБ
Сидеров: 15
Личеров: 3
Статус: (salma3)
Автор

СообщениеДобавлено: 07 янв 2016, 15:41 

Не в сети
Супермодератор
Аватара пользователя
Дата регистрации:
15 фев 2012, 16:44
Возраст: 28
Спасибо: 6594 / 2145
Сообщения: 44279
Режиссер: Брайан Левант
Жанр: комедия, семейный
Год выпуска: 1991

В ролях: Джон Риттер, Майкл Оливер, Джек Уорден, Лорин Ньюман, Эми Ясбек, Ивианн Шван, Гилберт Готфрид, Пол Вилсон, Алан Блюменфилд, Шарлин Тилтон

Описание:
Озорник Джуниор Хили — невозможный ребенок, но приемный отец терпит его выходки и старается сдержать свой гнев, ведь Джуниор — всего лишь маленький мальчик, хотя и трудный. Ситуация в семье изменилась с момента первой части фильма. Папа Хили развелся со своей женой и переехал вместе с сыном в квартал, где живут в основном разведенные женщины.
Сразу же папа Хили становится объектом пристального внимания этих «хищниц». Вскоре Хили-старший связывает себя обязательствами по отношению к женщине, которая ненавидит Хили-младшего. В ответ Джуниор приводит в дом свою маленькую подружку — трудного ребенка N2…



Страна: США
Продолжительность: 01:20:41
Перевод: Профессиональный (многоголосый, закадровый)
Субтитры: русские, английские (вшитые, отключаемые)

Формат: WEB-DL 720p, MKV, H.264, AC3
Видео: 1280x690 (1.85:1), 23.976 fps, AVC (x264) , ~3876 kbps avg, 0.183 bit/pixel
Аудио1: Russian 48 kHz, AC3 (L,R,) ~192 kbps avg [MVO]
Аудио1: Ukrainian 48 kHz, AC3 (L,R,) ~192 kbps avg [MVO]
Аудио2: English 48 kHz, AC3 (L,R,) ~192 kbps avg [Original]

Общее
Уникальный идентификатор : 203148409811415748434142222768902926851 (0x98D4F5E7542460489D8B16764D767203)
Полное имя : E:\Problem Child 2 (1991) WEB-DL 720p.mkv
Формат : Matroska
Версия формата : Version 4 / Version 2
Размер файла : 2,88 Гбайт
Продолжительность : 1 ч. 30 м.
Общий поток : 4542 Кбит/сек
Название фильма : Трудный ребенок 2 (1991) [WEB-DL 720p]
Дата кодирования : UTC 2015-06-30 12:18:49
Программа кодирования : mkvmerge v8.1.0 ('Psychedelic Postcard') 64bit
Библиотека кодирования : libebml v1.3.1 + libmatroska v1.4.2
DURATION : 01:30:40.608000000
NUMBER_OF_FRAMES : 170019
NUMBER_OF_BYTES : 130574592
_STATISTICS_WRITING_APP : mkvmerge v8.1.0 ('Psychedelic Postcard') 64bit
_STATISTICS_WRITING_DATE_UTC : 2015-06-30 12:18:49
_STATISTICS_TAGS : BPS DURATION NUMBER_OF_FRAMES NUMBER_OF_BYTES

Видео
Идентификатор : 1
Формат : AVC
Формат/Информация : Advanced Video Codec
Профиль формата :
Параметр CABAC формата : Нет
Параметр ReFrames формата : 2 кадра
Идентификатор кодека : V_MPEG4/ISO/AVC
Продолжительность : 1 ч. 30 м.
Битрейт : 3876 Кбит/сек
Ширина : 1280 пикселей
Высота : 690 пикселей
Соотношение сторон : 1,85:1
Режим частоты кадров : Постоянный
Частота кадров : 23,976 кадра/сек
Цветовое пространство : YUV
Субдискретизация насыщенности : 4:2:0
Битовая глубина : 8 бит
Тип развёртки : Прогрессивная
Бит/(Пиксели*Кадры) : 0.183
Размер потока : 2,45 Гбайт (85%)
Заголовок : Problem Child 2
Язык : Russian
Default : Да
Forced : Нет
Основные цвета : BT.709
Характеристики трансфера : BT.709
Коэффициенты матрицы : BT.709
colour_range : Limited

Аудио #1
Идентификатор : 2
Формат : AC-3
Формат/Информация : Audio Coding 3
Расширение режима : CM (complete main)
Параметр Endianness формата : Big
Идентификатор кодека : A_AC3
Продолжительность : 1 ч. 30 м.
Вид битрейта : Постоянный
Битрейт : 192 Кбит/сек
Каналы : 2 канала
Расположение каналов : Front: L R
Частота : 48,0 КГц
Битовая глубина : 16 бит
Метод сжатия : С потерями
Размер потока : 125 Мбайт (4%)
Заголовок : AC3, 2ch, 192 Kbps (MVO) |n/a|
Язык : Russian
Default : Да
Forced : Нет

Аудио #2
Идентификатор : 3
Формат : AC-3
Формат/Информация : Audio Coding 3
Расширение режима : CM (complete main)
Параметр Endianness формата : Big
Идентификатор кодека : A_AC3
Продолжительность : 1 ч. 30 м.
Вид битрейта : Постоянный
Битрейт : 192 Кбит/сек
Каналы : 2 канала
Расположение каналов : Front: L R
Частота : 48,0 КГц
Битовая глубина : 16 бит
Метод сжатия : С потерями
Размер потока : 125 Мбайт (4%)
Заголовок : AC3, 2ch, 192 Kbps (MVO) |ICTV|
Язык : Ukrainian
Default : Нет
Forced : Нет

Аудио #3
Идентификатор : 4
Формат : AC-3
Формат/Информация : Audio Coding 3
Расширение режима : CM (complete main)
Параметр Endianness формата : Big
Идентификатор кодека : A_AC3
Продолжительность : 1 ч. 30 м.
Вид битрейта : Постоянный
Битрейт : 192 Кбит/сек
Каналы : 2 канала
Расположение каналов : Front: L R
Частота : 48,0 КГц
Битовая глубина : 16 бит
Метод сжатия : С потерями
Размер потока : 125 Мбайт (4%)
Заголовок : original
Язык : English
Default : Нет
Forced : Нет

Текст #1
Идентификатор : 5
Формат : UTF-8
Идентификатор кодека : S_TEXT/UTF8
Идентификатор кодека/Информация : UTF-8 Plain Text
Заголовок : [полный]
Язык : Russian
Default : Нет
Forced : Нет

Текст #2
Идентификатор : 6
Формат : UTF-8
Идентификатор кодека : S_TEXT/UTF8
Идентификатор кодека/Информация : UTF-8 Plain Text
Заголовок : [полный]
Язык : English
Default : Нет
Forced : Нет

Меню
00:00:00.000 : en:Welcome to Mortville (Main Titles)
00:03:40.000 : en:Divorce Capital of the World
00:08:38.000 : en:First Day of School
00:15:27.000 : en:Lady in Red
00:20:22.000 : en:Babysitters Suck
00:26:34.000 : en:Big Ben’s Back
00:30:06.000 : en:The Love Rock
00:36:24.000 : en:Goodbye Ladies
00:39:51.000 : en:Two of a Kind
00:44:37.000 : en:Barf Fest
00:50:48.000 : en:Maid to Order
00:55:31.000 : en:Roach Hotel
00:59:17.000 : en:Open House
01:05:52.000 : en:Blood Test
01:11:04.000 : en:Food Fight
01:15:14.000 : en:Playing Cupid
01:20:52.000 : en:Change in Plans
01:26:31.000 : en:End Titles





_________________
Проголосуй за трекер Открытый торрент трекер - RUS-MEDIA.ORG

Проголосуй Открытый торрент трекер - RUS-MEDIA.ORG



реклама партнёра


Вернуться к началу
 Профиль Отправить личное сообщение  
 
   Похожие торренты   Автор   Торрент   Размер 
В этой теме нет новых непрочитанных сообщений. Трудный ребенок / Problem Child [комедия, семейный, 1990] WEB-DL 720p, Mvo+Sub

salma3

15 | 3

2.74 ГБ

В этой теме нет новых непрочитанных сообщений. Трудный Ребенок: Трилогия / Problem Child: Trilogy (Дэннис Дуган,Брайан Левант,Грег Биман) [1990-1995, Комедия, Семейный, DVDRip]

marya111

0 | 0

4.27 ГБ

В этой теме нет новых непрочитанных сообщений. Свой ребёнок / Obvious Child [Мелодрама, комедия, 2014] BDRip 720p, mvo [Чистый звук]

Dracon

9 | 1

4.26 ГБ

В этой теме нет новых непрочитанных сообщений. Золотой ребенок / The Golden Child [фэнтези, боевик, комедия, 1986] WEBRip 1080p, Mvo

salma3

80 | 43

11.16 ГБ

В этой теме нет новых непрочитанных сообщений. Свой ребёнок / Obvious Child (Gillian Robespierre) [Мелодрама, комедия, 2014] HDRip, mvo [Чистый звук]

Dracon

88 | 3

1.35 ГБ

В этой теме нет новых непрочитанных сообщений. Свой ребёнок / Obvious Child (Gillian Robespierre) [Мелодрама, комедия, 2014] BDRip 1080p, mvo [Чистый звук]

Dracon

5 | 1

7.01 ГБ

В этой теме нет новых непрочитанных сообщений. Похищенный ребенок / Stolen Child [Драма, 2012] HDTVRip, Mvo

salma3

75 | 7

1.37 ГБ


Начать новую тему Ответить на тему  [ 1 сообщение ] 




Для Мосгорсуда, Роскомнадзора и рекламодателей:: mosgorsud-torrent[собачка]yandex.ru