Торрент файл
скачать торрент магнет ссылка Добавлен: 07 янв 2016, 15:38
Размер: 2.74 ГБ
Сидеров: 15
Личеров: 2
Статус: (salma3)
Автор

СообщениеДобавлено: 07 янв 2016, 15:38 

Не в сети
Супермодератор
Аватара пользователя
Дата регистрации:
15 фев 2012, 16:44
Возраст: 27
Спасибо: 5136 / 2089
Сообщения: 17409
Режиссер: Деннис Дуган
Жанр: комедия, семейный
Год выпуска: 1990

В ролях: Джон Риттер, Джек Уорден, Майкл Оливер, Гилберт Готтфрид, Эми Ясбек, Майкл Ричардс, Питер Юрасик, Шарлотт Акин, Джордан Бертон, Эли Камминз, Мэгги Доусон, Деннис Дуган

Описание:
Бен Хили и его жена Фло, стремящаяся пробиться в высшее общество, усыновляют Джуниора, прелестное и забавное семилетнее существо.
Однако вскоре они убеждаются, что их приемный сын — маленькое чудовище, которое ухитряется превратить отдых в кемпинге, праздник по случаю дня рождения и даже бейсбольный матч в подлинный кошмар. Хотя и очень смешной.
Но может быть, Джуниор — на самом деле ангелочек, пытающийся таким способом привлечь к себе внимание? Ищите ответ в этой развеселой картине, сатирически изображающей современную семейную жизнь.



Страна: США
Продолжительность: 01:20:41
Перевод: Профессиональный (многоголосый, закадровый)
Субтитры: русские, английские (вшитые, отключаемые)

Формат: WEB-DL 720p, MKV, H.264, AC3
Видео: 1280x716 (16:9), 23.976 fps, AVC (x264) , ~4178 kbps avg, 0.190 bit/pixel
Аудио1: Russian 48 kHz, AC3 (L,R,) ~192 kbps avg [MVO]
Аудио1: Ukrainian 48 kHz, AC3 (L,R,) ~192 kbps avg [MVO]
Аудио2: English 48 kHz, AC3 (L,R,) ~192 kbps avg [Original]

Общее
Уникальный идентификатор : 205268645370895206526045043378371309055 (0x9A6D4D9669934E3B828E295A4A862DFF)
Полное имя : E:\Problem Child (1990) WEB-DL 720p.mkv
Формат : Matroska
Версия формата : Version 4 / Version 2
Размер файла : 2,74 Гбайт
Продолжительность : 1 ч. 20 м.
Общий поток : 4851 Кбит/сек
Название фильма : Трудный ребенок (1990) [WEB-DL 720p]
Дата кодирования : UTC 2015-06-30 12:00:57
Программа кодирования : mkvmerge v8.1.0 ('Psychedelic Postcard') 64bit
Библиотека кодирования : libebml v1.3.1 + libmatroska v1.4.2
DURATION : 01:20:41.888000000
NUMBER_OF_FRAMES : 151309
NUMBER_OF_BYTES : 116205312
_STATISTICS_WRITING_APP : mkvmerge v8.1.0 ('Psychedelic Postcard') 64bit
_STATISTICS_WRITING_DATE_UTC : 2015-06-30 12:00:57
_STATISTICS_TAGS : BPS DURATION NUMBER_OF_FRAMES NUMBER_OF_BYTES

Видео
Идентификатор : 1
Формат : AVC
Формат/Информация : Advanced Video Codec
Профиль формата :
Параметр CABAC формата : Нет
Параметр ReFrames формата : 2 кадра
Идентификатор кодека : V_MPEG4/ISO/AVC
Продолжительность : 1 ч. 20 м.
Битрейт : 4178 Кбит/сек
Ширина : 1280 пикселей
Высота : 716 пикселей
Соотношение сторон : 16:9
Режим частоты кадров : Постоянный
Частота кадров : 23,976 кадра/сек
Цветовое пространство : YUV
Субдискретизация насыщенности : 4:2:0
Битовая глубина : 8 бит
Тип развёртки : Прогрессивная
Бит/(Пиксели*Кадры) : 0.190
Размер потока : 2,36 Гбайт (86%)
Заголовок : Problem Child
Язык : Russian
Default : Да
Forced : Нет
Основные цвета : BT.709
Характеристики трансфера : BT.709
Коэффициенты матрицы : BT.709
colour_range : Limited

Аудио #1
Идентификатор : 2
Формат : AC-3
Формат/Информация : Audio Coding 3
Расширение режима : CM (complete main)
Параметр Endianness формата : Big
Идентификатор кодека : A_AC3
Продолжительность : 1 ч. 20 м.
Вид битрейта : Постоянный
Битрейт : 192 Кбит/сек
Каналы : 2 канала
Расположение каналов : Front: L R
Частота : 48,0 КГц
Битовая глубина : 16 бит
Метод сжатия : С потерями
Размер потока : 111 Мбайт (4%)
Заголовок : AC3, 2ch, 192 Kbps (MVO) |n/a|
Язык : Russian
Default : Да
Forced : Нет

Аудио #2
Идентификатор : 3
Формат : AC-3
Формат/Информация : Audio Coding 3
Расширение режима : CM (complete main)
Параметр Endianness формата : Big
Идентификатор кодека : A_AC3
Продолжительность : 1 ч. 20 м.
Вид битрейта : Постоянный
Битрейт : 192 Кбит/сек
Каналы : 2 канала
Расположение каналов : Front: L R
Частота : 48,0 КГц
Битовая глубина : 16 бит
Метод сжатия : С потерями
Размер потока : 111 Мбайт (4%)
Заголовок : AC3, 2ch, 192 Kbps (MVO) |ICTV (ранний)|
Язык : Ukrainian
Default : Нет
Forced : Нет

Аудио #3
Идентификатор : 4
Формат : AC-3
Формат/Информация : Audio Coding 3
Профиль формата : Dolby Digital
Расширение режима : CM (complete main)
Параметр Endianness формата : Big
Идентификатор кодека : A_AC3
Продолжительность : 1 ч. 20 м.
Вид битрейта : Постоянный
Битрейт : 192 Кбит/сек
Каналы : 2 канала
Расположение каналов : Front: L R
Частота : 48,0 КГц
Битовая глубина : 16 бит
Метод сжатия : С потерями
Размер потока : 111 Мбайт (4%)
Заголовок : original
Язык : English
Default : Нет
Forced : Нет

Текст #1
Идентификатор : 5
Формат : UTF-8
Идентификатор кодека : S_TEXT/UTF8
Идентификатор кодека/Информация : UTF-8 Plain Text
Заголовок : [полный]
Язык : Russian
Default : Нет
Forced : Нет

Текст #2
Идентификатор : 6
Формат : UTF-8
Идентификатор кодека : S_TEXT/UTF8
Идентификатор кодека/Информация : UTF-8 Plain Text
Заголовок : [полный]
Язык : English
Default : Нет
Forced : Нет

Меню
00:00:00.000 : en:00:00:00.000
00:09:56.000 : en:00:09:56.000
00:19:38.000 : en:00:19:38.000
00:27:22.000 : en:00:27:22.000
00:36:42.000 : en:00:36:42.000
00:45:48.000 : en:00:45:48.000
00:55:14.000 : en:00:55:14.000
01:05:14.000 : en:01:05:14.000
01:12:39.000 : en:01:12:39.000
01:16:10.000 : en:01:16:10.000





_________________



реклама партнёра


Вернуться к началу
 Профиль Отправить личное сообщение  
 
   Похожие торренты   Автор   Торрент   Размер 
В этой теме нет новых непрочитанных сообщений. Трудный ребенок 2 / Problem Child 2 [комедия, семейный, 1991] WEB-DL 720p, Mvo+Sub

salma3

15 | 2

2.88 ГБ

В этой теме нет новых непрочитанных сообщений. Трудный Ребенок: Трилогия / Problem Child: Trilogy (Дэннис Дуган,Брайан Левант,Грег Биман) [1990-1995, Комедия, Семейный, DVDRip]

marya111

0 | 0

4.27 ГБ

В этой теме нет новых непрочитанных сообщений. Свой ребёнок / Obvious Child [Мелодрама, комедия, 2014] BDRip 720p, mvo [Чистый звук]

Dracon

9 | 1

4.26 ГБ

В этой теме нет новых непрочитанных сообщений. Свой ребёнок / Obvious Child (Gillian Robespierre) [Мелодрама, комедия, 2014] HDRip, mvo [Чистый звук]

Dracon

88 | 3

1.35 ГБ

В этой теме нет новых непрочитанных сообщений. Свой ребёнок / Obvious Child (Gillian Robespierre) [Мелодрама, комедия, 2014] BDRip 1080p, mvo [Чистый звук]

Dracon

5 | 1

7.01 ГБ

В этой теме нет новых непрочитанных сообщений. Похищенный ребенок / Stolen Child [Драма, 2012] HDTVRip, Mvo

salma3

75 | 6

1.37 ГБ

В этой теме нет новых непрочитанных сообщений. Трудный возраст / Girl in Progress [Драма, комедия, 2012] BDRip 720p, Mvo

salma3

36 | 6

3.72 ГБ


Начать новую тему Ответить на тему  [ 1 сообщение ] 




Для Мосгорсуда, Роскомнадзора и рекламодателей:: mosgorsud-torrent[собачка]yandex.ru