Торрент файл
скачать торрент магнет ссылка Добавлен: 05 янв 2016, 11:39
Размер: 1.46 ГБ
Сидеров: 748
Личеров: 52
Статус: (salma3)
Автор

СообщениеДобавлено: 05 янв 2016, 11:39 

Не в сети
Зам. Админа
Аватара пользователя
Дата регистрации:
02 дек 2010, 12:39
Спасибо: 12569 / 214
Сообщения: 28057
Информация о фильме
Название: Любовь без обязательств
Оригинальное название: Sleeping with Other People
Год выпуска: 2015
Страна: США
Жанр: комедия

Перевод: Дубляж - [iTunes]
Продолжительность: 01:41:15

Режиссер: Лесли Хэдланд
В ролях: Джейсон Судейкис (Jake), Элисон Бри (Lainey), Джордан Карлос (R.A.), Маргарита Левиева (Hannah), Чарльз Кэйн (Helmet Kid), Адам Броди (Sam), Майкл Сирил Крейтон (Attentive Waiter), Билли Айкнер (SLAA Speaker), Джейсон Манцукас (Xander), Маргарет Одетт (Thea), Аманда Пит (Paula), Виктория Фрингс (Nurse)


Описание:
Джейк - дамский угодник, каких свет не видывал. Он с легкостью завоевывает женские сердца, а потом разбивает их. Лэйни - его полная противоположность, она еще со студенческих лет влюблена в одного и того же мужчину, но чем больше проходит времени, тем очевиднее становится, что с ним у нее нет будущего. У этих двоих есть одна романтическая история из прошлого. История, которая может помочь им изменить себя. Но для этого им придется придерживаться между собой исключительно дружеских отношений, ведь секс в их жизни все лишь усложнял. Смогут эти двое удержаться от соблазна и помочь друг другу?

Рейтинг:

MPAA: R - Лицам до 17 лет обязательно присутствие взрослого

Качество: BDRip-AVC [Blu-Ray Remux 1080p]
Формат: MKV
Видео: AVC, 1024x426 (2.40:1), 1680 kbps, 23,976 fps, 0,161 bpp
Аудио: AC3 / 5.1 / 48 kHz / 384 kbps / 16 bit


Релиз от: by schultz
General
Unique ID : 248460076664292839102945492103638750591 (0xBAEBAB8FD19DF7BAB0B70B28C38B157F)
Complete name : D:downloadSleeping with Other People.2015.BDRip-AVC by schultz R.G.Resident.mkv
Format : Matroska
Format version : Version 2
File size : 1.46 GiB
Duration : 1h 41mn
Overall bit rate : 2 062 Kbps
Encoded date : UTC 2016-01-05 03:21:05
Writing application : mkvmerge v6.1.0 ('Old Devil') built on Mar 4 2013 09:10:42
Writing library : libebml v1.3.0 + libmatroska v1.4.0

Video
ID : 1
Format : AVC
Format/Info : Advanced Video Codec
Format profile : High@L4.1
Format settings, CABAC : Yes
Format settings, ReFrames : 12 frames
Codec ID : V_MPEG4/ISO/AVC
Duration : 1h 41mn
Bit rate : 1 680 Kbps
Width : 1 024 pixels
Height : 426 pixels
Display aspect ratio : 2.40:1
Frame rate : 23.976 fps
Color space : YUV
Chroma subsampling : 4:2:0
Bit depth : 8 bits
Scan type : Progressive
Bits/(Pixel*Frame) : 0.161
Stream size : 1.16 GiB (79%)
Writing library : x264 core 130 r2273 b3065e6
Encoding settings : cabac=1 / ref=12 / deblock=1:-3:-3 / analyse=0x3:0x113 / me=umh / subme=11 / psy=1 / psy_rd=1.00:0.10 / mixed_ref=1 / me_range=48 / chroma_me=1 / trellis=2 / 8x8dct=1 / cqm=0 / deadzone=21,11 / fast_pskip=0 / chroma_qp_offset=-3 / threads=12 / lookahead_threads=3 / sliced_threads=0 / nr=0 / decimate=1 / interlaced=0 / bluray_compat=0 / constrained_intra=0 / bframes=13 / b_pyramid=2 / b_adapt=2 / b_bias=0 / direct=3 / weightb=1 / open_gop=0 / weightp=2 / keyint=240 / keyint_min=24 / scenecut=40 / intra_refresh=0 / rc_lookahead=40 / rc=2pass / mbtree=0 / bitrate=1680 / ratetol=1.0 / qcomp=0.60 / qpmin=0 / qpmax=69 / qpstep=4 / cplxblur=20.0 / qblur=0.5 / vbv_maxrate=14000 / vbv_bufsize=14000 / nal_hrd=none / ip_ratio=1.40 / pb_ratio=1.30 / aq=1:0.80
Default : Yes
Forced : No

Audio
ID : 2
Format : AC-3
Format/Info : Audio Coding 3
Mode extension : CM (complete main)
Codec ID : A_AC3
Duration : 1h 41mn
Bit rate mode : Constant
Bit rate : 384 Kbps
Channel(s) : 6 channels
Channel positions : Front: L C R, Side: L R, LFE
Sampling rate : 48.0 KHz
Bit depth : 16 bits
Compression mode : Lossy
Stream size : 278 MiB (19%)
Default : Yes
Forced : No





реклама партнёра


Вернуться к началу
 Профиль  
 
   Похожие торренты   Автор   Торрент   Размер 
В этой теме нет новых непрочитанных сообщений. Любовь без обязательств / Sleeping with Other People (Лесли Хэдланд) [комедия, 2015] BDRip 1080p, Dub [iTunes]

Dracon

692 | 64

7.3 ГБ

В этой теме нет новых непрочитанных сообщений. Любовь без обязательств / Sleeping with Other People (Лесли Хэдланд) [комедия, 2015] HDRip, Dub [iTunes]

Dracon

2468 | 120

1.45 ГБ

В этой теме нет новых непрочитанных сообщений. Любовь без обязательств / Sleeping with Other People (Лесли Хэдланд / Leslye Headland) [2015г., комедия, WEB-DL Rip - 720p)dvo

Alfredovich

11 | 3

2.76 ГБ

В этой теме нет новых непрочитанных сообщений. Любовь вразнос / Papa ou maman (Мартин Бурбулон) [комедия, 2015] BDRip 1080p, Dub [iTunes]

Dracon

43 | 4

6.78 ГБ

В этой теме нет новых непрочитанных сообщений. Любовь вразнос / Papa ou maman (Мартин Бурбулон) [комедия, 2015] BDRip 720p, Dub [iTunes]

Dracon

21 | 1

4.6 ГБ

В этой теме нет новых непрочитанных сообщений. Люди, места, вещи / People Places Things [Комедия, 2015] WEB-DLRip, Mvo [iTunes]

Dracon

61 | 3

1.37 ГБ

В этой теме нет новых непрочитанных сообщений. Без обязательств / Casual [1 сезон: 1-10 серия из 10] [Комедия, 2015] WEBRip [BaibaKo]

Dracon

185 | 45

3.52 ГБ


Начать новую тему Ответить на тему  [ 1 сообщение ] 




Для Мосгорсуда, Роскомнадзора и рекламодателей:: mosgorsud-torrent[собачка]yandex.ru