Торрент файл
скачать торрент магнет ссылка Добавлен: 03 янв 2016, 11:29
Размер: 2.48 ГБ
Сидеров: 6110
Личеров: 250
Статус: (salma3)
Автор

СообщениеДобавлено: 03 янв 2016, 11:29 

Не в сети
Зам. Админа
Аватара пользователя
Дата регистрации:
02 дек 2010, 12:39
Спасибо: 12460 / 214
Сообщения: 27968
Информация о фильме
Название: Шерлок: Безобразная невеста
Оригинальное название: Sherlock: The Abominable Bride
Год выхода: 2015
Жанр: триллер, драма, криминал, детектив
Режиссер: Дуглас МакКиннон
В ролях: Бенедикт Камбербэтч, Мартин Фриман, Уна Стаббс, Лу Брили, Руперт Грэйвз, Джонатан Арис, Аманда Эббингтон, Наташа О’Кифф

О фильме:
Отдельный рождественский эпизод сериала. Действие фильма происходит в 1895 года в Лондоне. К Шерлоку за помощью обращается некий Томас Риколетти. Он увидел свою жену в старом свадебном платье и очень удивился. А вскоре узнал, что она покончила с собой всего за несколько часов до этой странной встречи. Получается, что он видел призрак жены и, что еще хуже, теперь призрак миссис Риколетти бродит по улицам не в силах утолить жажду мести. Перемещаясь от скрытой в тумане станции «Лаймхаус» до развалин старой церкви Холмс, Ватсон и их друзья должны проявить свои лучшие качества в схватке с врагом, на первый взгляд связанным с потусторонними силами, чтобы узнать шокирующую правду о безобразной невесте!

Страна: Великобритания
Продолжительность: ~ 01:30:00
Перевод: Профессиональный (дублированый) - Первый канал

✘ видеоряд русифицированный, чистый: логотипов и прочего ТВ мусора - нет.

рип, работа со стилизованными субтитрами qqss44
x264 [info]: frame I:1229 Avg QP:12.24 size: 64820
x264 [info]: frame P:37430 Avg QP:14.87 size: 28624
x264 [info]: frame B:95280 Avg QP:16.01 size: 10476
Общее
Уникальный идентификатор : 234482023589122038860608022116630662373 (0xB06798562F6373F4AA3892AA670A0CE5)
Формат : Matroska
Версия формата : Version 2
Размер файла : 2,48 Гбайт
Продолжительность : 1 ч. 29 м.
Общий поток : 3980 Кбит/сек
Дата кодирования : UTC 2016-01-03 01:52:28
Программа кодирования : mkvmerge v7.9.0 ('Birds') 64bit
Библиотека кодирования : libebml v1.3.1 + libmatroska v1.4.2
DURATION : 01:28:27.300000000
NUMBER_OF_FRAMES : 1472
NUMBER_OF_BYTES : 54391
_STATISTICS_WRITING_APP : mkvmerge v7.9.0 ('Birds') 64bit
_STATISTICS_WRITING_DATE_UTC : 2016-01-03 01:52:28
_STATISTICS_TAGS : BPS DURATION NUMBER_OF_FRAMES NUMBER_OF_BYTES

Видео
Идентификатор : 1
Формат : AVC
Формат/Информация : Advanced Video Codec
Профиль формата : High@L4.1
Параметр CABAC формата : Да
Параметр ReFrames формата : 9 кадров
Идентификатор кодека : V_MPEG4/ISO/AVC
Продолжительность : 1 ч. 29 м.
Битрейт : 3210 Кбит/сек
Ширина : 1280 пикселей
Высота : 720 пикселей
Соотношение сторон : 16:9
Режим частоты кадров : Постоянный
Частота кадров : 25,000 кадров/сек
Цветовое пространство : YUV
Субдискретизация насыщенности : 4:2:0
Битовая глубина : 8 бит
Тип развёртки : Прогрессивная
Бит/(Пиксели*Кадры) : 0.139
Размер потока : 1,95 Гбайт (79%)
Библиотека кодирования : x264 core 130 r2273 b3065e6
Настройки программы : cabac=1 / ref=9 / deblock=1:-1:-1 / analyse=0x3:0x133 / me=umh / subme=11 / psy=1 / psy_rd=1.00:0.20 / mixed_ref=1 / me_range=32 / chroma_me=1 / trellis=2 / 8x8dct=1 / cqm=0 / deadzone=21,11 / fast_pskip=0 / chroma_qp_offset=-3 / threads=12 / lookahead_threads=2 / sliced_threads=0 / nr=0 / decimate=0 / interlaced=0 / bluray_compat=0 / constrained_intra=0 / bframes=9 / b_pyramid=2 / b_adapt=2 / b_bias=0 / direct=3 / weightb=1 / open_gop=0 / weightp=2 / keyint=250 / keyint_min=25 / scenecut=40 / intra_refresh=0 / rc=2pass / mbtree=0 / bitrate=3210 / ratetol=1.0 / qcomp=0.60 / qpmin=0 / qpmax=69 / qpstep=4 / cplxblur=20.0 / qblur=0.5 / ip_ratio=1.40 / pb_ratio=1.30 / aq=1:1.00
Язык : English
Default : Да
Forced : Нет
DURATION : 01:29:17.560000000
NUMBER_OF_FRAMES : 133939
NUMBER_OF_BYTES : 2149228904
_STATISTICS_WRITING_APP : mkvmerge v7.9.0 ('Birds') 64bit
_STATISTICS_WRITING_DATE_UTC : 2016-01-03 01:52:28
_STATISTICS_TAGS : BPS DURATION NUMBER_OF_FRAMES NUMBER_OF_BYTES

Аудио #1
Идентификатор : 2
Формат : AC-3
Формат/Информация : Audio Coding 3
Расширение режима : CM (complete main)
Параметр Endianness формата : Big
Идентификатор кодека : A_AC3
Продолжительность : 1 ч. 29 м.
Вид битрейта : Постоянный
Битрейт : 384 Кбит/сек
Каналы : 6 каналов
Расположение каналов : Front: L C R, Side: L R, LFE
Частота : 48,0 КГц
Метод сжатия : С потерями
Размер потока : 245 Мбайт (10%)
Заголовок : DUB
Язык : Russian
Default : Да
Forced : Нет

Аудио #2
Идентификатор : 3
Формат : AC-3
Формат/Информация : Audio Coding 3
Расширение режима : CM (complete main)
Параметр Endianness формата : Big
Идентификатор кодека : A_AC3
Продолжительность : 1 ч. 29 м.
Вид битрейта : Постоянный
Битрейт : 384 Кбит/сек
Каналы : 6 каналов
Расположение каналов : Front: L C R, Side: L R, LFE
Частота : 48,0 КГц
Метод сжатия : С потерями
Размер потока : 245 Мбайт (10%)
Заголовок : Original
Язык : English
Default : Нет
Forced : Нет

Текст #1
Идентификатор : 4
Формат : ASS
Идентификатор кодека : S_TEXT/ASS
Идентификатор кодека/Информация : Advanced Sub Station Alpha
Метод сжатия : Без потерь
Заголовок : Stylized Rus (.ass)
Язык : Russian
Default : Нет
Forced : Нет

Текст #2
Идентификатор : 5
Формат : UTF-8
Идентификатор кодека : S_TEXT/UTF8
Идентификатор кодека/Информация : UTF-8 Plain Text
Заголовок : Standart Rus (.srt)
Язык : Russian
Default : Нет
Forced : Нет

Текст #3
Идентификатор : 6
Формат : ASS
Идентификатор кодека : S_TEXT/ASS
Идентификатор кодека/Информация : Advanced Sub Station Alpha
Метод сжатия : Без потерь
Заголовок : Stylized Eng (.ass)
Язык : English
Default : Нет
Forced : Нет

Текст #4
Идентификатор : 7
Формат : UTF-8
Идентификатор кодека : S_TEXT/UTF8
Идентификатор кодека/Информация : UTF-8 Plain Text
Заголовок : Standart Eng (.srt)
Язык : English
Default : Нет
Forced : Нет

Файл
Качество: WEBRip 720p СЭМПЛ
Формат: MKV
Видео: 1280x720 (1.80:1), x264 ~3210 kbps
Аудио Rus: 48 kHz, AC3, 5.1 ch, ~384.00 kbps avg
Аудио Eng: 48 kHz, AC3, 5.1 ch, ~384.00 kbps avg
Субтитры: русские, английские (два вида - стилизованные, стандартные)








реклама партнёра


Вернуться к началу
 Профиль  
 
   Похожие торренты   Автор   Торрент   Размер 
В этой теме нет новых непрочитанных сообщений. Шерлок: Безобразная невеста / Sherlock: The Abominable Bride (Дуглас МакКиннон) [триллер, драма, криминал, детектив, 2015] WEBRip, Dub+Sub [Первый канал]

Dracon

2912 | 38

1.1 ГБ

В этой теме нет новых непрочитанных сообщений. Шерлок: Безобразная невеста / Sherlock: The Abominable Bride (Дуглас МакКиннон) [триллер, драма, криминал, детектив, 2015] WEBRip 1080p, Dub+Sub [Первый канал]

Dracon

8420 | 147

3.48 ГБ

В этой теме нет новых непрочитанных сообщений. Шерлок : Безобразная невеста / Sherlock: The Abominable Bride (Дуглас МакКиннон) [триллер, драма, криминал, детектив, 2015] HDTV 1080p, Dub+Sub [Первый канал]

Dracon

2654 | 43

5.22 ГБ

В этой теме нет новых непрочитанных сообщений. Шерлок: Безобразная невеста / Sherlock: The Abominable Bride (Дуглас МакКиннон) [2015, Детектив, криминал, мистика, экранизация , HDTVRip 1080p ] [DD5.1] [Dub Rus , Eng]+[Sub Rus , Eng]

Враг Нароода

15 | 2

6.44 ГБ

В этой теме нет новых непрочитанных сообщений. Шерлок / Sherlock [03x01-02 из 03] [Драма, детектив, 2014] HDTVRip, Dub [Первый канал]

Dracon

2392 | 1944

1.77 ГБ

В этой теме нет новых непрочитанных сообщений. Шерлок / Sherlock [03x01-03 из 03] [Драма, детектив, 2013] HDTV 1080i, Dub [Первый канал]

RusTan

453 | 1158

13.57 ГБ

В этой теме нет новых непрочитанных сообщений. Шерлок / Sherlock [03x01-02 из 03] [Драма, детектив, 2013] HDTV 1080i, Dub [Первый канал]

Ανδρέας

832 | 950

7.73 ГБ


Начать новую тему Ответить на тему  [ 1 сообщение ] 




Для Мосгорсуда, Роскомнадзора и рекламодателей:: mosgorsud-torrent[собачка]yandex.ru