Торрент файл
скачать торрент магнет ссылка Добавлен: 31 дек 2015, 12:31
Размер: 2.84 ГБ
Сидеров: 1495
Личеров: 100
Статус: (salma3)
Автор

СообщениеДобавлено: 31 дек 2015, 12:31 

Не в сети
Зам. Админа
Аватара пользователя
Дата регистрации:
02 дек 2010, 12:39
Спасибо: 12460 / 214
Сообщения: 27968
Марсианин
The Martian

«Верните его домой»


Страна: США, Великобритания
Жанр: фантастика, приключения
Год выпуска: 2015
Продолжительность: 02:21:37

Перевод: Профессиональный (полное дублирование) [Лицензия iTunes]
Cубтитры: Русские (форсированные, полные), Украинские (форсированные, полные), Английские
Оригинальная аудиодорожка: Английский

Режиссер: Ридли Скотт / Ridley Scott

В ролях: Мэтт Дэймон, Джессика Честейн, Чиветель Эджиофор, Кристен Уиг, Джефф Дэниелс, Майкл Пенья, Шон Бин, Кейт Мара, Себастьян Стэн, Аксель Хенни, Бенедикт Вонг, Маккензи Дэвис

Описание:
Марсианская миссия «Арес-3» в процессе работы была вынуждена экстренно покинуть планету из-за надвигающейся песчаной бури. Инженер и биолог Марк Уотни получил повреждение скафандра во время песчаной бури. Сотрудники миссии, посчитав его погибшим, эвакуировались с планеты, оставив Марка одного.
Очнувшись, Уотни обнаруживает, что связь с Землёй отсутствует, но при этом полностью функционирует жилой модуль. Главный герой начинает искать способ продержаться на имеющихся запасах еды, витаминов, воды и воздуха ещё 4 года до прилёта следующей миссии «Арес-4».


Релиз:

Автор рипа: Stalker oK

Сэмпл

Качество видео: BDRip-AVC [HDCLUB / Blu-ray Remux / 1080p]
Формат видео: MKV
Видео кодек: AVC
Аудио кодек: AC3
Видео: 2045 Кбит/сек, 1056*440 (2,40:1), в 23,976 (24000/1001) кадра/сек, AVC
Аудио #1: Russian, 384 Кбит/сек, 48,0 КГц, 6 каналов, AC-3
Аудио #2: English, 448 Кбит/сек, 48,0 КГц, 6 каналов, AC-3


Общее
Уникальный идентификатор : 235344050289558535396832503956658638128 (0xB10D9D88CBFB94568FD9AFF297CECD30)
Полное имя : M:RipsThe MartianThe.Martian.2015.BDRip-AVC.Dub.2.91Gb.stalkerok.new-team.mkv
Формат : Matroska
Версия формата : Version 4 / Version 2
Размер файла : 2,84 Гбайт
Продолжительность : 2 ч. 21 м.
Общий поток : 2875 Кбит/сек
Название фильма : The Martian (2015) (New-Team) (Rip by Stalker oK)
Дата кодирования : UTC 2015-12-30 20:55:32
Программа кодирования : mkvmerge v8.6.1 ('Flying') 64bit
Библиотека кодирования : libebml v1.3.3 + libmatroska v1.4.4

Видео
Идентификатор : 7
Формат : AVC
Формат/Информация : Advanced Video Codec
Профиль формата : High@L4.1
Параметр CABAC формата : Да
Параметр ReFrames формата : 14 кадров
Идентификатор кодека : V_MPEG4/ISO/AVC
Продолжительность : 2 ч. 21 м.
Битрейт : 2045 Кбит/сек
Ширина : 1056 пикселей
Высота : 440 пикселей
Соотношение сторон : 2,40:1
Режим частоты кадров : Постоянный
Частота кадров : 23,976 (24000/1001) кадра/сек
Цветовое пространство : YUV
Субдискретизация насыщенности : 4:2:0
Битовая глубина : 8 бит
Тип развёртки : Прогрессивная
Бит/(Пиксели*Кадры) : 0.184
Размер потока : 2,02 Гбайт (71%)
Заголовок : The Martian (2015) (New-Team) (Rip by Stalker oK)
Библиотека кодирования : x264 core 148 r2638kMod 7599210
Настройки программы : cabac=1 / ref=14 / deblock=1:-3:-3 / analyse=0x3:0x133 / me=umh / subme=11 / psy=1 / fade_compensate=0.00 / psy_rd=1.00:0.10 / mixed_ref=1 / me_range=48 / chroma_me=1 / trellis=2 / 8x8dct=1 / cqm=0 / deadzone=21,11 / fast_pskip=0 / chroma_qp_offset=-3 / threads=12 / lookahead_threads=3 / sliced_threads=0 / nr=0 / decimate=0 / interlaced=0 / bluray_compat=0 / constrained_intra=0 / fgo=0 / bframes=15 / b_pyramid=2 / b_adapt=2 / b_bias=0 / direct=3 / weightb=1 / open_gop=0 / weightp=2 / keyint=240 / keyint_min=23 / scenecut=40 / intra_refresh=0 / rc_lookahead=60 / rc=2pass / mbtree=0 / bitrate=2045 / ratetol=1.0 / qcomp=0.70 / qpmin=0 / qpmax=69 / qpstep=4 / cplxblur=20.0 / qblur=0.5 / vbv_maxrate=50000 / vbv_bufsize=62500 / nal_hrd=none / filler=0 / ip_ratio=1.40 / pb_ratio=1.30 / aq=3:0.90
Default : Да
Forced : Нет

Аудио #1
Идентификатор : 1
Формат : AC-3
Формат/Информация : Audio Coding 3
Расширение режима : CM (complete main)
Параметр Endianness формата : Big
Идентификатор кодека : A_AC3
Продолжительность : 2 ч. 21 м.
Вид битрейта : Постоянный
Битрейт : 384 Кбит/сек
Каналы : 6 каналов
Расположение каналов : Front: L C R, Side: L R, LFE
Частота : 48,0 КГц
Частота кадров : 31,250 кадров/сек (1536 spf)
Метод сжатия : С потерями
Размер потока : 389 Мбайт (13%)
Язык : Russian
Default : Да
Forced : Нет

Аудио #2
Идентификатор : 8
Формат : AC-3
Формат/Информация : Audio Coding 3
Расширение режима : CM (complete main)
Параметр Endianness формата : Big
Идентификатор кодека : A_AC3
Продолжительность : 2 ч. 21 м.
Вид битрейта : Постоянный
Битрейт : 448 Кбит/сек
Каналы : 6 каналов
Расположение каналов : Front: L C R, Side: L R, LFE
Частота : 48,0 КГц
Частота кадров : 31,250 кадров/сек (1536 spf)
Метод сжатия : С потерями
Размер потока : 454 Мбайт (16%)
Язык : English
Default : Нет
Forced : Нет

Текст #1
Идентификатор : 2
Формат : UTF-8
Идентификатор кодека : S_TEXT/UTF8
Идентификатор кодека/Информация : UTF-8 Plain Text
Продолжительность : 2 ч. 20 м.
Битрейт : 3 бит/сек
Count of elements : 67
Размер потока : 3,16 Кбайт (0%)
Заголовок : forced
Язык : Russian
Default : Да
Forced : Нет

Текст #2
Идентификатор : 3
Формат : UTF-8
Идентификатор кодека : S_TEXT/UTF8
Идентификатор кодека/Информация : UTF-8 Plain Text
Продолжительность : 2 ч. 20 м.
Битрейт : 94 бит/сек
Count of elements : 1753
Размер потока : 97,5 Кбайт (0%)
Язык : Russian
Default : Нет
Forced : Нет

Текст #3
Идентификатор : 4
Формат : UTF-8
Идентификатор кодека : S_TEXT/UTF8
Идентификатор кодека/Информация : UTF-8 Plain Text
Продолжительность : 2 ч. 19 м.
Битрейт : 2 бит/сек
Count of elements : 50
Размер потока : 2,42 Кбайт (0%)
Заголовок : forced
Язык : Ukrainian
Default : Нет
Forced : Нет

Текст #4
Идентификатор : 5
Формат : UTF-8
Идентификатор кодека : S_TEXT/UTF8
Идентификатор кодека/Информация : UTF-8 Plain Text
Продолжительность : 2 ч. 20 м.
Битрейт : 97 бит/сек
Count of elements : 1753
Размер потока : 100 Кбайт (0%)
Язык : Ukrainian
Default : Нет
Forced : Нет

Текст #5
Идентификатор : 6
Формат : UTF-8
Идентификатор кодека : S_TEXT/UTF8
Идентификатор кодека/Информация : UTF-8 Plain Text
Продолжительность : 2 ч. 13 м.
Битрейт : 60 бит/сек
Count of elements : 1793
Размер потока : 58,7 Кбайт (0%)
Язык : English
Default : Нет
Forced : Нет

Меню
00:00:00.000 : en:Chapter 1
00:03:22.284 : en:Chapter 2
00:10:08.982 : en:Chapter 3
00:15:24.590 : en:Chapter 4
00:18:25.186 : en:Chapter 5
00:21:34.375 : en:Chapter 6
00:24:28.090 : en:Chapter 7
00:28:52.689 : en:Chapter 8
00:31:36.644 : en:Chapter 9
00:34:21.099 : en:Chapter 10
00:39:13.434 : en:Chapter 11
00:41:21.768 : en:Chapter 12
00:46:23.530 : en:Chapter 13
00:49:25.085 : en:Chapter 14
00:56:15.746 : en:Chapter 15
00:59:40.492 : en:Chapter 16
01:02:23.822 : en:Chapter 17
01:06:53.134 : en:Chapter 18
01:09:52.979 : en:Chapter 19
01:13:51.301 : en:Chapter 20
01:18:38.255 : en:Chapter 21
01:22:52.466 : en:Chapter 22
01:30:41.269 : en:Chapter 23
01:37:30.094 : en:Chapter 24
01:43:31.997 : en:Chapter 25
01:46:16.286 : en:Chapter 26
01:50:18.737 : en:Chapter 27
01:54:07.966 : en:Chapter 28
01:57:49.311 : en:Chapter 29
02:04:41.681 : en:Chapter 30
02:11:05.731 : en:Chapter 31
02:13:28.792 : en:Chapter 32






реклама партнёра


Вернуться к началу
 Профиль  
 
   Похожие торренты   Автор   Торрент   Размер 
В этой теме нет новых непрочитанных сообщений. Марсианин / The Martian (Ридли Скотт) [Фантастика, приключения, 2015] BDRip 1080p, dub [iTunes]

Dracon

4064 | 550

11.3 ГБ

В этой теме нет новых непрочитанных сообщений. Марсианин / The Martian (Ридли Скотт) [Фантастика, приключения, 2015] BDRip 720p, dub [iTunes]

Dracon

438 | 9

7.53 ГБ

В этой теме нет новых непрочитанных сообщений. Марсианин / The Martian (Ридли Скотт) [Фантастика, приключения, 2015] BDRip 1080p, Dub+Sub [3D-Video | iTunes]

Dracon

962 | 149

13.51 ГБ

В этой теме нет новых непрочитанных сообщений. Марсианин / The Martian (Ридли Скотт) [Фантастика, приключения, 2015] BDRip 1080p, Dub+Sub [3D-Video | HSBS | iTunes]

Dracon

1260 | 171

10.53 ГБ

В этой теме нет новых непрочитанных сообщений. Марсианин / The Martian (Ридли Скотт) [Фантастика, приключения, 2015] HDRip, dub [iTunes]

Dracon

846 | 17

1.37 ГБ

В этой теме нет новых непрочитанных сообщений. Марсианин / The Martian (Ридли Скотт) [фантастика, приключения, 2015] HDRip, dub [iTunes]

Dracon

164 | 8

2.05 ГБ

В этой теме нет новых непрочитанных сообщений. Марсианин / The Martian (Ридли Скотт) [Фантастика, приключения, 2015] HDRip-AVC, Dub+Sub [iTunes]

Dracon

1948 | 139

2.52 ГБ


Начать новую тему Ответить на тему  [ 1 сообщение ] 




Для Мосгорсуда, Роскомнадзора и рекламодателей:: mosgorsud-torrent[собачка]yandex.ru