Торрент файл
скачать торрент магнет ссылка Добавлен: 28 дек 2015, 12:37
Размер: 1.46 ГБ
Сидеров: 103
Личеров: 11
Статус: (salma3)
Автор

СообщениеДобавлено: 28 дек 2015, 12:37 

В сети
Супермодератор
Аватара пользователя
Дата регистрации:
15 фев 2012, 16:44
Возраст: 27
Спасибо: 5143 / 2090
Сообщения: 17495
Зверь войны / The Beastl

Год выхода: 1988
Жанр: Драма, Военный, Боевик
Режиссер: Кевин Рейнольдс / Kevin Reynolds

В ролях: Джордж Зунза, Джейсон Патрик, Стивен Бауэр, Стивен Болдуин, Дон Харви, Кабир Беди, Эрик Авари, Чайм Джирафи

О фильме:
Афганистан. 1981 год. Советский танк попадает в окружение. Подразделение танка решает идти на прорыв к своим. Но за ними по пятам неотрывно идут душманы. Один из членов экипажа, которому надоела бессмысленная война, отказывается подчиниться приказу, и оказывается брошенным на верную погибель своим командиром. Чудом оставшись в живых, он решает присоединится к повстанцам...



Страна: США
Продолжительность: 01:49:47
Перевод: Авторский [одноголосый] [Е.Хрусталёв|]

Файл
Качество: WEB-DLRip
Формат файла: AVI
Видео кодек: XviD
Аудио кодек: AC3
Видео: 688x384, 23,976 fps, 1641 kbps
Звук: AC3, 2 ch, 256 Kbps, 48.0 khz


Общее
Полное имя : The.Beast.of.War.1988.WEB-DLRip.avi
Формат : AVI
Формат/Информация : Audio Video Interleave
Размер файла : 1,46 Гбайт
Продолжительность : 1 ч. 49 м.
Общий поток : 1907 Кбит/сек
Программа кодирования : VirtualDubMod 1.5.10.3 | http://www.virtualdub-fr.org || (build 2550/release)
Библиотека кодирования : VirtualDubMod build 2550/release

Видео
Идентификатор : 0
Формат : MPEG-4 Visual
Профиль формата : Advanced Simple@L5
Параметр BVOP формата : 2
Параметр QPel формата : Нет
Параметр GMC формата : Без точки перехода
Параметр матрицы формата : Выборочная
Идентификатор кодека : XVID
Идентификатор кодека/Подсказка : XviD
Продолжительность : 1 ч. 49 м.
Битрейт : 1641 Кбит/сек
Ширина : 688 пикс.
Высота : 384 пикс.
Соотношение сторон : 16:9
Частота кадров : 23,976 кадр/сек
Цветовое пространство : YUV
Подвыборка цветности : 4:2:0
Битовая глубина : 8 бит
Тип развёртки : Прогрессивная
Метод сжатия : С потерями
Бит/(Пиксели*Кадры) : 0.259
Размер потока : 1,26 Гбайт (86%)
Библиотека кодирования : XviD 73

Аудио
Идентификатор : 1
Формат : AC-3
Формат/Информация : Audio Coding 3
Расширение режима : CM (complete main)
Идентификатор кодека : 2000
Продолжительность : 1 ч. 49 м.
Вид битрейта : Постоянный
Битрейт : 256 Кбит/сек
Канал(ы) : 2 канала(ов)
Расположение каналов : Front: L R
Частота : 48,0 КГц
Битовая глубина : 16 бит
Метод сжатия : С потерями
Размер потока : 201 Мбайт (13%)
Выравнивание : Разделение по промежуткам
Продолжительность промежутка : 42 мс. (1,00 видеокадр)
Время предзагрузки промежутка : 500 ms


Релиз от: Leon-masl


_________________



реклама партнёра


Вернуться к началу
 Профиль Отправить личное сообщение  
 
   Похожие торренты   Автор   Торрент   Размер 
В этой теме нет новых непрочитанных сообщений. Зверь-преследователь / Beast stalker [боевик, триллер, драма, 2008] BDRip, Avo

salma3

40 | 10

1.37 ГБ

В этой теме нет новых непрочитанных сообщений. Зверь / Beast (Ларс Педерсен / Lars Pedersen) [2009г., драма, короткий метр, DVB] DVO

Alfredovich

2 | 3

319.83 МБ

В этой теме нет новых непрочитанных сообщений. Зверь внутри / The Beast Within [Ужасы, 1982] BDRip 720p, Avo

salma3

3 | 2

4.26 ГБ

В этой теме нет новых непрочитанных сообщений. Демоны войны / Demony wojny wedlug Goi [боевик, драма, военный, 1998] DVDRip, Mvo

salma3

27 | 9

1.99 ГБ

В этой теме нет новых непрочитанных сообщений. Демоны войны / Demony wojny wedlug Goi [боевик, драма, военный, 1998] DVD5, Mvo+Sub

salma3

7 | 5

4.14 ГБ

В этой теме нет новых непрочитанных сообщений. Диверсант 2: Конец войны / Серии: 1-10 из 10 (Игорь Зайцев) [2007, Военный боевик, DVDRip - AVC]

marya111

6 | 5

6.84 ГБ

В этой теме нет новых непрочитанных сообщений. Красавица и Чудовище / Beauty and the Beast / 4 сезон 1-13 серия из 13 [триллер, драма, криминал, детектив, 2016] WEB-DLRip, Mvo [LostFilm]

salma3

191 | 196

6.98 ГБ


Начать новую тему Ответить на тему  [ 1 сообщение ] 




Для Мосгорсуда, Роскомнадзора и рекламодателей:: mosgorsud-torrent[собачка]yandex.ru