Торрент файл
скачать торрент магнет ссылка Добавлен: 28 дек 2015, 12:10
Размер: 2.52 ГБ
Сидеров: 1961
Личеров: 140
Статус: (salma3)
Автор

СообщениеДобавлено: 28 дек 2015, 12:10 

Не в сети
Зам. Админа
Аватара пользователя
Дата регистрации:
02 дек 2010, 12:39
Спасибо: 12461 / 214
Сообщения: 27968
Информация о фильме
Название: Марсианин
Оригинальное название: The Martian
Год выхода: 2015
Жанр: фантастика, приключения
Режиссер: Ридли Скотт
В ролях: Мэтт Дэймон, Джессика Честейн, Кристен Уиг, Джефф Дэниелс, Майкл Пенья, Шон Бин, Кейт Мара, Себастьян Стэн, Аксель Хенни, Чиветель Эджиофор

О фильме: Марсианская миссия «Арес-3» в процессе работы была вынуждена экстренно покинуть планету из-за надвигающейся песчаной бури. Инженер и биолог Марк Уотни получил повреждение скафандра во время песчаной бури. Сотрудники миссии, посчитав его погибшим, эвакуировались с планеты, оставив Марка одного. Очнувшись, Уотни обнаруживает, что связь с Землёй отсутствует, но при этом полностью функционирует жилой модуль. Главный герой начинает искать способ продержаться на имеющихся запасах еды, витаминов, воды и воздуха ещё 4 года до прилёта следующей миссии «Арес-4».

[font=georgia]
Выпущено: США / 20th Century Fox Film Corporation, Genre Films, International Traders, Mid Atlantic Films, Scott Free Productions
Продолжительность: 02:21:37
Озвучивание: Дублированное [iTunes]

Файл
Качество: HDRip (AVC)
Видео: MPEG-4 AVC, 1723 Кбит/с, 1024x426
Аудио: Русский (AC3, 6 ch, 384 Кбит/с), английский (AC3, 6 ch, 448 Кбит/с)
Субтитры: Русские (forced, Full), английские

General
Unique ID : 186253020327999003174373020515710183254 (0x8C1F06E3751DBB1F99C71586C5AEA756)
Complete name : C:Marsianin.2015.D.HDRip.AVC.ExKinoRay.mkv
Format : Matroska
Format version : Version 4 / Version 2
File size : 2.52 GiB
Duration : 2h 21mn
Overall bit rate : 2 548 Kbps
Movie name : The Martian 2015 from ExKinoRay
Encoded date : UTC 2015-12-28 06:21:53
Writing application : mkvmerge v6.6.0 ('The Edge Of The In Between') built on Dec 1 2013 17:55:00
Writing library : libebml v1.3.0 + libmatroska v1.4.1

Video
ID : 1
Format : AVC
Format/Info : Advanced Video Codec
Format profile : High@L4.1
Format settings, CABAC : Yes
Format settings, ReFrames : 10 frames
Codec ID : V_MPEG4/ISO/AVC
Duration : 2h 21mn
Bit rate : 1 723 Kbps
Width : 1 024 pixels
Height : 426 pixels
Display aspect ratio : 2.40:1
Frame rate mode : Constant
Frame rate : 23.976 fps
Color space : YUV
Chroma subsampling : 4:2:0
Bit depth : 8 bits
Scan type : Progressive
Bits/(Pixel*Frame) : 0.165
Stream size : 1.65 GiB (65%)
Title : Enigma
Writing library : x264 core 133 r2334 a3ac64b
Encoding settings : cabac=1 / ref=10 / deblock=1:-2:-2 / analyse=0x3:0x113 / me=umh / subme=10 / psy=1 / psy_rd=1.05:0.15 / mixed_ref=1 / me_range=32 / chroma_me=1 / trellis=2 / 8x8dct=1 / cqm=0 / deadzone=21,11 / fast_pskip=0 / chroma_qp_offset=-3 / threads=12 / lookahead_threads=2 / sliced_threads=0 / nr=0 / decimate=0 / interlaced=0 / bluray_compat=0 / constrained_intra=0 / bframes=9 / b_pyramid=2 / b_adapt=2 / b_bias=0 / direct=3 / weightb=1 / open_gop=0 / weightp=2 / keyint=240 / keyint_min=23 / scenecut=40 / intra_refresh=0 / rc=2pass / mbtree=0 / bitrate=1723 / ratetol=1.0 / qcomp=0.60 / qpmin=0 / qpmax=51 / qpstep=4 / cplxblur=20.0 / qblur=0.5 / ip_ratio=1.40 / pb_ratio=1.30 / aq=1:1.00
Language : English
Default : Yes
Forced : No
Color primaries : BT.709
Transfer characteristics : BT.709
Matrix coefficients : BT.709

Audio #1
ID : 2
Format : AC-3
Format/Info : Audio Coding 3
Mode extension : CM (complete main)
Format settings, Endianness : Big
Codec ID : A_AC3
Duration : 2h 21mn
Bit rate mode : Constant
Bit rate : 384 Kbps
Channel(s) : 6 channels
Channel positions : Front: L C R, Side: L R, LFE
Sampling rate : 48.0 KHz
Bit depth : 16 bits
Compression mode : Lossy
Delay relative to video : 950ms
Stream size : 389 MiB (15%)
Title : iTunes
Language : Russian
Default : Yes
Forced : No

Audio #2
ID : 3
Format : AC-3
Format/Info : Audio Coding 3
Mode extension : CM (complete main)
Format settings, Endianness : Big
Codec ID : A_AC3
Duration : 2h 21mn
Bit rate mode : Constant
Bit rate : 448 Kbps
Channel(s) : 6 channels
Channel positions : Front: L C R, Side: L R, LFE
Sampling rate : 48.0 KHz
Bit depth : 16 bits
Compression mode : Lossy
Stream size : 454 MiB (18%)
Language : English
Default : No
Forced : No

Text #1
ID : 4
Format : UTF-8
Codec ID : S_TEXT/UTF8
Codec ID/Info : UTF-8 Plain Text
Title : Forced
Language : Russian
Default : Yes
Forced : No

Text #2
ID : 5
Format : UTF-8
Codec ID : S_TEXT/UTF8
Codec ID/Info : UTF-8 Plain Text
Title : Full
Language : Russian
Default : No
Forced : No

Text #3
ID : 6
Format : UTF-8
Codec ID : S_TEXT/UTF8
Codec ID/Info : UTF-8 Plain Text
Language : English
Default : No
Forced : No

Menu
00:00:00.000 : en:00:00:00.000
00:03:22.285 : en:00:03:22.285
00:10:08.983 : en:00:10:08.983
00:15:24.590 : en:00:15:24.590
00:18:25.187 : en:00:18:25.187
00:21:34.376 : en:00:21:34.376
00:24:28.092 : en:00:24:28.092
00:28:52.689 : en:00:28:52.689
00:31:36.645 : en:00:31:36.645
00:34:21.101 : en:00:34:21.101
00:39:13.434 : en:00:39:13.434
00:41:21.771 : en:00:41:21.771
00:46:23.531 : en:00:46:23.531
00:49:25.087 : en:00:49:25.087
00:56:15.747 : en:00:56:15.747
00:59:40.494 : en:00:59:40.494
01:02:23.823 : en:01:02:23.823
01:06:53.134 : en:01:06:53.134
01:09:52.980 : en:01:09:52.980
01:13:51.302 : en:01:13:51.302
01:18:38.255 : en:01:18:38.255
01:22:52.467 : en:01:22:52.467
01:30:41.269 : en:01:30:41.269
01:37:30.094 : en:01:37:30.094
01:43:31.997 : en:01:43:31.997
01:46:16.287 : en:01:46:16.287
01:50:18.737 : en:01:50:18.737
01:54:07.966 : en:01:54:07.966
01:57:49.312 : en:01:57:49.312
02:04:41.683 : en:02:04:41.683
02:11:05.733 : en:02:11:05.733
02:13:28.792 : en:02:13:28.792






реклама партнёра


Вернуться к началу
 Профиль  
 
   Похожие торренты   Автор   Торрент   Размер 
В этой теме нет новых непрочитанных сообщений. Марсианин / The Martian (Ридли Скотт) [Фантастика, приключения, 2015] HDRip, dub [iTunes]

Dracon

846 | 17

1.37 ГБ

В этой теме нет новых непрочитанных сообщений. Марсианин / The Martian (Ридли Скотт) [фантастика, приключения, 2015] HDRip, dub [iTunes]

Dracon

164 | 8

2.05 ГБ

В этой теме нет новых непрочитанных сообщений. Марсианин / The Martian (Ридли Скотт) [Фантастика, приключения, 2015] BDRip-AVC, Dub+Sub [iTunes]

Dracon

1549 | 102

2.84 ГБ

В этой теме нет новых непрочитанных сообщений. Марсианин / The Martian (Ридли Скотт) [Фантастика, приключения, 2015] BDRip 1080p, dub [iTunes]

Dracon

4064 | 550

11.3 ГБ

В этой теме нет новых непрочитанных сообщений. Марсианин / The Martian (Ридли Скотт) [Фантастика, приключения, 2015] BDRip 720p, dub [iTunes]

Dracon

438 | 9

7.53 ГБ

В этой теме нет новых непрочитанных сообщений. Марсианин / The Martian (Ридли Скотт) [Фантастика, приключения, 2015] BDRemux 1080p, Dub+Sub [iTunes]

Dracon

224 | 17

32.03 ГБ

В этой теме нет новых непрочитанных сообщений. Марсианин / The Martian (Ридли Скотт) [Фантастика, приключения, 2015] BDRip 1080p, Dub+Sub [3D-Video | iTunes]

Dracon

962 | 149

13.51 ГБ


Начать новую тему Ответить на тему  [ 1 сообщение ] 




Для Мосгорсуда, Роскомнадзора и рекламодателей:: mosgorsud-torrent[собачка]yandex.ru