Торрент файл
скачать торрент магнет ссылка Добавлен: 08 дек 2015, 02:35
Размер: 2.19 ГБ
Сидеров: 23
Личеров: 11
Статус: (salma3)
Автор

СообщениеДобавлено: 08 дек 2015, 02:35 

Не в сети
Супермодератор
Аватара пользователя
Дата регистрации:
15 фев 2012, 16:44
Возраст: 27
Спасибо: 5121 / 2089
Сообщения: 17316
Год выхода: 1988
Жанр: Боевик
Режиссер: Юэнь Воо-пин

В ролях: Джеки Чун, Кэрол «До До» Чэн, Саймон Ям, Ман Тат Нг, Донни Ен, Ка-Ян Леунг, Ланг Вэй Ванг, Ирен Ван

О фильме:
Специальный отдел полиции готовит разоблачение крупной банды, но каждый раз бандитам удается ускользнуть сквозь расставленные сети. Становится ясно, что происходит утечка информации внутри отдела, а вскоре известен и информатор.
Это Майк — начальник отдела, а точнее тот, кто возглавляет банду. Пытаясь уйти от возмездия, Майк организует серию убийств, убирая свидетелей. Он действует, как затравленный ТИГР. Остановить его можно, только загнав в клетку…

Страна: Гонконг
Продолжительность: 01:33:03
Перевод: Авторский (одноголосый закадровый) В. Дохалов

Файл
Кодек: AVC, x264
Качество: HDRip 720p
Видео: 1280х680 [1.882], 3000 kbps, 23.976 fps
Звук: AC-3, 256 kbps, 48 KHz, 2 channels

General
Unique ID : 234843004273715173505402436448973115314 (0xB0AD1E0EFA9D036AB8C197C92B1A4FB2)
Complete name : E:VideoFilmКлетка тигра [Dak ging to lung, 1988] 720p.mkv
Format : Matroska
Format version : Version 2
File size : 2.19 GiB
Duration : 1h 33mn
Overall bit rate : 3 371 Kbps
Encoded date : UTC 2015-12-02 18:25:10
Writing application : mkvmerge v5.2.1 ('A Far Off Place') built on Jan 2 2012 23:21:10
Writing library : libebml v1.2.3 + libmatroska v1.3.0

Video
ID : 1
Format : AVC
Format/Info : Advanced Video Codec
Format profile : High@L4.2
Format settings, CABAC : Yes
Format settings, ReFrames : 7 frames
Muxing mode : Header stripping
Codec ID : V_MPEG4/ISO/AVC
Duration : 1h 33mn
Bit rate : 3 048 Kbps
Width : 1 280 pixels
Height : 680 pixels
Display aspect ratio : 1.882
Frame rate mode : Constant
Frame rate : 23.976 fps
Color space : YUV
Chroma subsampling : 4:2:0
Bit depth : 8 bits
Scan type : Progressive
Bits/(Pixel*Frame) : 0.146
Stream size : 1.98 GiB (90%)
Title : Tiger Cage 1988
Writing library : x264 core 130 r2273 b3065e6
Encoding settings : cabac=1 / ref=7 / deblock=1:-3:-3 / analyse=0x3:0x133 / me=umh / subme=11 / psy=1 / psy_rd=1.00:0.15 / mixed_ref=1 / me_range=32 / chroma_me=1 / trellis=2 / 8x8dct=1 / cqm=0 / deadzone=21,11 / fast_pskip=0 / chroma_qp_offset=-3 / threads=12 / lookahead_threads=2 / sliced_threads=0 / nr=0 / decimate=1 / interlaced=0 / bluray_compat=0 / constrained_intra=0 / bframes=9 / b_pyramid=2 / b_adapt=2 / b_bias=0 / direct=3 / weightb=1 / open_gop=0 / weightp=2 / keyint=240 / keyint_min=24 / scenecut=40 / intra_refresh=0 / rc_lookahead=180 / rc=crf / mbtree=1 / crf=18.5 / qcomp=0.60 / qpmin=0 / qpmax=69 / qpstep=4 / vbv_maxrate=62500 / vbv_bufsize=78125 / crf_max=0.0 / nal_hrd=none / ip_ratio=1.40 / aq=1:1.00
Language : English
Default : Yes
Forced : No
Color primaries : BT.709
Transfer characteristics : BT.709
Matrix coefficients : BT.709

Audio
ID : 2
Format : AC-3
Format/Info : Audio Coding 3
Mode extension : CM (complete main)
Format settings, Endianness : Big
Muxing mode : Header stripping
Codec ID : A_AC3
Duration : 1h 33mn
Bit rate mode : Constant
Bit rate : 256 Kbps
Channel(s) : 2 channels
Channel positions : Front: L R
Sampling rate : 48.0 KHz
Bit depth : 16 bits
Compression mode : Lossy
Delay relative to video : 124ms
Stream size : 170 MiB (8%)
Language : Russian
Default : Yes
Forced : No


_________________



реклама партнёра


Вернуться к началу
 Профиль Отправить личное сообщение  
 
   Похожие торренты   Автор   Торрент   Размер 
В этой теме нет новых непрочитанных сообщений. Клетка тигра 2 / Sai hak chin [Боевик, комедия, 1990] BDRip 1080p, Avo

salma3

0 | 0

7.98 ГБ

В этой теме нет новых непрочитанных сообщений. Драконы навсегда / Dragons Forever / Fei lung mang jeung [комедия, боевые искусства, 1988] BDRip 1080p, 2Mvo+2Avo

salma3

17 | 7

9.1 ГБ

В этой теме нет новых непрочитанных сообщений. Мастер / Lung hang tin haa [боевик, 1989] DVDRip, 2Avo

salma3

123 | 6

1.45 ГБ

В этой теме нет новых непрочитанных сообщений. Первый удар / Ging chaat goo si 4: Ji gaan daan yam mo [боевик, триллер, драма, 1995] DVDRip, Avo [Гаврилов]

salma3

32 | 8

1.46 ГБ

В этой теме нет новых непрочитанных сообщений. Охота за кристаллом / No foh wai lung [Боевик, боевые искусства, 1991] DVDRip-AVC, Mvo

salma3

22 | 5

1.98 ГБ

В этой теме нет новых непрочитанных сообщений. Клетка (Элла Архангельская) [драма, триллер, 2015] WEB-DL 720p [iTunes]

Dracon

3009 | 570

3.11 ГБ

В этой теме нет новых непрочитанных сообщений. Боевик Джексон / Action Jackson [боевик, триллер, комедия, криминал, 1988] BDRip 720p, Dub+Mvo+Avo

salma3

44 | 7

9.35 ГБ


Начать новую тему Ответить на тему  [ 1 сообщение ] 




Для Мосгорсуда, Роскомнадзора и рекламодателей:: mosgorsud-torrent[собачка]yandex.ru