Торрент файл
скачать торрент магнет ссылка Добавлен: 03 дек 2015, 12:20
Размер: 2.47 ГБ
Сидеров: 542
Личеров: 19
Статус: (salma3)
Автор

СообщениеДобавлено: 03 дек 2015, 12:20 

Не в сети
Зам. Админа
Аватара пользователя
Дата регистрации:
02 дек 2010, 12:39
Спасибо: 12461 / 214
Сообщения: 27968
Год выхода: 2015
Жанр: драма, комедия
Режиссер: Джафар Панахи
В ролях: Джафар Панахи
О фильме: Желтое такси колесит по ярким и красочным улицам Тегерана. В такси садятся разнообразные пассажиры, каждый из которых искренне выражает свои взгляды во время беседы с водителем. А водителем является не кто иной, как сам режиссер фильма Джафар Панахи.

Выпущено: Иран
Продолжительность: 01:21:08
Озвучивание: Профессиональное (многоголосое) [iTunes]

Формат: MKV
Качество: WEB-DL 720p
Видео: MPEG-4 AVC, 3881 kb/s, 1280x720
Аудио: AC3, 384 kb/s (6 ch)
Format : Matroska
Format version : Version 4 / Version 2
File size : 2.47 GiB
Duration : 1h 21mn
Overall bit rate : 4 352 Kbps
Encoded date : UTC 2015-12-02 17:48:11
Writing application : mkvmerge v8.3.0 ('Over the Horizon') 64bit
Writing library : libebml v1.3.1 + libmatroska v1.4.2
DURATION : 01:21:09.344000000
NUMBER_OF_FRAMES : 152167
NUMBER_OF_BYTES : 233728512
_STATISTICS_WRITING_APP : mkvmerge v8.3.0 ('Over the Horizon') 64bit
_STATISTICS_WRITING_DATE_UTC : 2015-12-02 17:48:11
_STATISTICS_TAGS : BPS DURATION NUMBER_OF_FRAMES NUMBER_OF_BYTES

Video
ID : 1
Format : AVC
Format/Info : Advanced Video Codec
Format profile : High@L3.1
Format settings, CABAC : No
Format settings, ReFrames : 2 frames
Codec ID : V_MPEG4/ISO/AVC
Duration : 1h 21mn
Bit rate : 3 881 Kbps
Width : 1 280 pixels
Height : 720 pixels
Display aspect ratio : 16:9
Frame rate mode : Constant
Frame rate : 24.000 fps
Color space : YUV
Chroma subsampling : 4:2:0
Bit depth : 8 bits
Scan type : Progressive
Bits/(Pixel*Frame) : 0.175
Stream size : 2.20 GiB (89%)
Language : English
Default : Yes
Forced : No
Color range : Limited
Color primaries : BT.709
Transfer characteristics : BT.709
Matrix coefficients : BT.709

Audio
ID : 2
Format : AC-3
Format/Info : Audio Coding 3
Mode extension : CM (complete main)
Format settings, Endianness : Big
Codec ID : A_AC3
Duration : 1h 21mn
Bit rate mode : Constant
Bit rate : 384 Kbps
Channel(s) : 6 channels
Channel positions : Front: L C R, Side: L R, LFE
Sampling rate : 48.0 KHz
Bit depth : 16 bits
Compression mode : Lossy
Stream size : 223 MiB (9%)
Language : Russian
Default : Yes
Forced : No

Menu
00:00:00.000 : en:1
00:12:30.000 : en:2
00:27:33.000 : en:3
00:37:37.000 : en:4
00:54:16.000 : en:5
01:07:19.000 : en:6
01:20:34.000 : en:7




реклама партнёра


Вернуться к началу
 Профиль  
 
   Похожие торренты   Автор   Торрент   Размер 
В этой теме нет новых непрочитанных сообщений. Такси / Taxi (Джафар Панахи) [Драма, комедия, 2015] WEB-DLRip, Mvo [iTunes]

Dracon

1682 | 87

1.37 ГБ

В этой теме нет новых непрочитанных сообщений. Такси / Taxi (Джафар Панахи) [Драма, комедия, 2015] WEB-DL 1080p, Mvo [iTunes]

Dracon

571 | 16

3.1 ГБ

В этой теме нет новых непрочитанных сообщений. Такси: Южный Бруклин / Taxi Brooklyn [S01] [боевик, драма, комедия, криминал, 2014] HDTVRip, Avo

salma3

21 | 15

4.55 ГБ

В этой теме нет новых непрочитанных сообщений. Алло, такси / Halo taxi [Триллер, 1983] DVDRip, Dub

salma3

22 | 3

1.37 ГБ

В этой теме нет новых непрочитанных сообщений. Второй шанс / Danny Collins (Дэн Фогельман) [драма, комедия, 2015] WEB-DL 720p, Dub [iTunes]

Dracon

245 | 14

3.25 ГБ

В этой теме нет новых непрочитанных сообщений. Наркотик / Dope (Рик Фамуйива) [драма, комедия, криминал, 2015] BDRip 720p, Mvo [iTunes]

Dracon

11 | 1

4.65 ГБ

В этой теме нет новых непрочитанных сообщений. Образцовые семьи / Belles familles [Комедия, драма, 2015] BDRip 720p, Dub [iTunes]

salma3

215 | 58

5.77 ГБ


Начать новую тему Ответить на тему  [ 1 сообщение ] 




Для Мосгорсуда, Роскомнадзора и рекламодателей:: mosgorsud-torrent[собачка]yandex.ru