Торрент файл
скачать торрент магнет ссылка Добавлен: 02 дек 2015, 23:23
Размер: 1.35 ГБ
Сидеров: 46
Личеров: 2
Статус: (salma3)
Автор

СообщениеДобавлено: 02 дек 2015, 23:23 

Не в сети
Супермодератор
Аватара пользователя
Дата регистрации:
15 фев 2012, 16:44
Возраст: 27
Спасибо: 5121 / 2089
Сообщения: 17282
Некто, похожий на Ходдера / En som Hodder

Год выхода: 2003
Жанр: семейный, фэнтези, драма
Режиссер: Хенрик Рубен Генц

В ролях: Фредерик Кристиан Йохансен, Ларс Бригманн, Бирте Нойманн, Андерс Ланд Кьельдсен, Трине Аппель, Анетт Стёвельбек, Метте Аньет Хорн, Джой-Мария Фредериксен, Оле Бойсен, Олаф Нилсен, Педе Ламберт, Джон Кальмар, Андерс Ланд Мэдсен, Оле Теструп, Хольгер Юль Хансен

О фильме:
Девятилетний Ходдер — одинокий, лишенный матери мальчик, склонный к необычному воображению. Он живет вместе со своим отцом, который зарабатывает на жизнь, расклеивая по ночам постеры на рекламных щитах. И хотя у Ходдера нет друзей, и в школе он не очень-то в почете у сверстников, мальчик оптимистично относится к жизни. Но однажды ночью Ходдеру является фея и просит его спасти мир. Фантазия переплетается с реальностью, оказывая положительное влияние на жизнь мальчика…



Производство: Дания / Nordisk Film A/S, TV2 Danmark
Продолжительность: 01:20:46
Перевод: любительский (одноголосый закадровый) [Вячеслав Прошин]

Файл
Качество: DVDRip
Формат файла: AVI
Видео кодек: XviD
Аудио кодек: AC3
Видео: XviD, 704x384 (1.85:1), 25.000 fps, 1995 kbps
Аудио #1: русский, MP3 2.0, 48 KHz, 192 kbps
Аудио #2: датский, MP3 2.0, 48 KHz, 192 kbps
Субтитры: русские вшитые неотключаемые на песни


Общее
Полное имя : En.Som.Hodder.2003.DVDRip.avi
Формат : AVI
Формат/Информация : Audio Video Interleave
Размер файла : 1,35 Гбайт
Продолжительность : 1 ч. 20 м.
Общий поток : 2393 Кбит/сек
Название фильма : En Som Hodder
Тема : Someone Like Hodder
Программа кодирования : VirtualDubModRus 1.5.10.2 (build 2540/release)
Библиотека кодирования : VirtualDubMod build 2540/release

Видео
Идентификатор : 0
Формат : MPEG-4 Visual
Профиль формата : Advanced Simple@L5
Параметр BVOP формата : 1
Параметр QPel формата : Нет
Параметр GMC формата : Без точки перехода
Параметр матрицы формата : Default (MPEG)
Идентификатор кодека : XVID
Идентификатор кодека/Подсказка : XviD
Продолжительность : 1 ч. 20 м.
Битрейт : 1995 Кбит/сек
Ширина : 704 пикселя
Высота : 384 пикселя
Соотношение сторон : 1,85:1
Частота кадров : 25,000 кадров/сек
Цветовое пространство : YUV
Субдискретизация насыщенности : 4:2:0
Битовая глубина : 8 бит
Тип развёртки : Прогрессивная
Метод сжатия : С потерями
Бит/(Пиксели*Кадры) : 0.295
Размер потока : 1,13 Гбайт (83%)
Библиотека кодирования : XviD 1.2.1 (UTC 2008-12-04)

Аудио #1
Идентификатор : 1
Формат : MPEG Audio
Версия формата : Version 1
Профиль формата : Layer 3
Режим : Joint stereo
Идентификатор кодека : 55
Идентификатор кодека/Подсказка : MP3
Продолжительность : 1 ч. 20 м.
Вид битрейта : Постоянный
Битрейт : 192 Кбит/сек
Каналы : 2 канала
Частота : 48,0 КГц
Метод сжатия : С потерями
Размер потока : 111 Мбайт (8%)
Выравнивание : Соединение по промежуткам
Продолжительность промежутка : 40 мс. (1,00 видеокадр)
Время предзагрузки промежутка : 504 мс.

Аудио #2
Идентификатор : 2
Формат : MPEG Audio
Версия формата : Version 1
Профиль формата : Layer 3
Режим : Joint stereo
Идентификатор кодека : 55
Идентификатор кодека/Подсказка : MP3
Продолжительность : 1 ч. 20 м.
Вид битрейта : Постоянный
Битрейт : 192 Кбит/сек
Каналы : 2 канала
Частота : 48,0 КГц
Метод сжатия : С потерями
Размер потока : 111 Мбайт (8%)
Выравнивание : Соединение по промежуткам
Продолжительность промежутка : 40 мс. (1,00 видеокадр)
Время предзагрузки промежутка : 504 мс.

Релиз:


_________________



реклама партнёра


Вернуться к началу
 Профиль Отправить личное сообщение  
 
   Похожие торренты   Автор   Торрент   Размер 
В этой теме нет новых непрочитанных сообщений. Скачок во времени / A Wrinkle in Time [Фантастика, фэнтези, приключения, семейный, 2003] DVDRip, Mvo

salma3

107 | 6

717.54 МБ

В этой теме нет новых непрочитанных сообщений. Чумовая пятница / Freaky Friday [фэнтези, комедия, семейный, 2003] WEB-DL 720p, Dub

salma3

88 | 16

3.66 ГБ

В этой теме нет новых непрочитанных сообщений. Остров смерти / The Paradise Virus [триллер, драма, семейный, 2003] DVDRip, Mvo

salma3

17 | 3

690.3 МБ

В этой теме нет новых непрочитанных сообщений. Особняк с привидениями / The Haunted Mansion [фэнтези, триллер, комедия, детектив, семейный, 2003] BDRip 1080p, Dub+Sub

salma3

46 | 6

5.75 ГБ

В этой теме нет новых непрочитанных сообщений. История Мари и Жюльена / Histoire de Marie et Julien [фэнтези, драма, мелодрама, детектив, 2003] DVDRip, Avo

salma3

0 | 2

1.84 ГБ

В этой теме нет новых непрочитанных сообщений. 4 друга & 4 лапы / 4 Freunde und 4 Pfoten [семейный, приключения, 2003] DVDRip, Mvo

salma3

24 | 5

1.48 ГБ

В этой теме нет новых непрочитанных сообщений. В мире животных / Creature Comforts [S01-02] [мультфильм, комедия, семейный, 2003-2006] DVDRip, Mvo

salma3

95 | 41

2.52 ГБ


Начать новую тему Ответить на тему  [ 1 сообщение ] 




Для Мосгорсуда, Роскомнадзора и рекламодателей:: mosgorsud-torrent[собачка]yandex.ru