Торрент файл
скачать торрент магнет ссылка Добавлен: 17 ноя 2015, 21:18
Размер: 2.05 ГБ
Сидеров: 1994
Личеров: 181
Статус: (salma3)
Автор

СообщениеДобавлено: 17 ноя 2015, 21:18 

Не в сети
Зам. Админа
Аватара пользователя
Дата регистрации:
02 дек 2010, 12:39
Спасибо: 12458 / 214
Сообщения: 27968
Год выхода: 2015
Жанр: фантастика, боевик, триллер

Режиссер: Уэс Болл
Авторы сценария: Т.С. Наулин, Джеймс Дашнер
Продюсеры: Марти Бауэн, Вик Годфри, Эллен Голдсмит-Вейн

В ролях: Дилан О’Брайен, Кая Скоделарио, Томас Сэнгстер, Натали Эммануэль, К. МакНамара, Эйдан Гиллен, Ки Хонг Ли

О фильме: Лабиринт пройден, но Томасу, Терезе, Минхо и прочим глэйдерам не приходится расслабляться. Таинственное руководство ПОРОКА — секретной организации, устроившей гонки на выживание — назначает ребятам новые, смертельно опасные испытания. На сей раз их ждет переход по раскаленной пустыне и встреча с жертвами неизлечимой болезни, которые отличаются буйным нравом и непредсказуемым поведением...



Страна: США
Студия: The Gotham Group, Temple Hill Entertainment, TSG Entertainment
Продолжительность: 02:11:43
Перевод: Профессиональный (полное дублирование) | звук с TS

Кодек: XviD
Качество: DVDRip
Видео: 720x304 (2.35:1), 23.976 fps, XviD ~1 750 kbps avg, 0.333 bit/pixel
Аудио №1: 48.0 kHz, AC3 Dolby Digital, 2/0 (L,R) ch, ~128.00 kbps avg (RUS)
Аудио №2: 48.0 kHz, AC3 Dolby Digital, 2/0 (L,R) ch, ~256.00 kbps avg (ENG)
Субтитры: нет

General
Complete name : 6egushyi.B.La6yryHte.2015.Dt.2100MB.avi
Format : AVI
Format/Info : Audio Video Interleave
File size : 2.05 GiB
Duration : 2h 11mn
Overall bit rate : 2 233 Kbps
Writing application : VirtualDubMod 1.5.10.3 | (build 2550/release)
Writing library : VirtualDubMod build 2550/release

Video
ID : 0
Format : MPEG-4 Visual
Format profile : Advanced Simple@L5
Format settings, BVOP : 2
Format settings, QPel : No
Format settings, GMC : No warppoints
Format settings, Matrix : Default (MPEG)
Codec ID : XVID
Codec ID/Hint : XviD
Duration : 2h 11mn
Bit rate : 1 750 Kbps
Width : 720 pixels
Height : 304 pixels
Display aspect ratio : 2.35:1
Frame rate : 23.976 fps
Color space : YUV
Chroma subsampling : 4:2:0
Bit depth : 8 bits
Scan type : Progressive
Compression mode : Lossy
Bits/(Pixel*Frame) : 0.333
Stream size : 1.61 GiB (78%)
Writing library : XviD 1.2.1 (UTC 2008-12-04)

Audio #1
ID : 1
Format : AC-3
Format/Info : Audio Coding 3
Mode extension : CM (complete main)
Format settings, Endianness : Big
Codec ID : 2000
Duration : 2h 11mn
Bit rate mode : Constant
Bit rate : 128 Kbps
Channel(s) : 2 channels
Channel positions : Front: L R
Sampling rate : 48.0 KHz
Bit depth : 16 bits
Compression mode : Lossy
Stream size : 121 MiB (6%)
Alignment : Split accross interleaves

Audio #2
ID : 2
Format : AC-3
Format/Info : Audio Coding 3
Mode extension : CM (complete main)
Format settings, Endianness : Big
Codec ID : 2000
Duration : 2h 11mn
Bit rate mode : Constant
Bit rate : 256 Kbps
Channel(s) : 2 channels
Channel positions : Front: L R
Sampling rate : 48.0 KHz
Bit depth : 16 bits
Compression mode : Lossy
Stream size : 241 MiB (11%)
Alignment : Split accross interleaves




реклама партнёра


Вернуться к началу
 Профиль  
 
   Похожие торренты   Автор   Торрент   Размер 
В этой теме нет новых непрочитанных сообщений. Бегущий в лабиринте: Испытание огнём / Maze Runner: The Scorch Trials (Уэс Болл) [фантастика, боевик, триллер, 2015] DVDRip, dub [Звук с TS]

Dracon

137 | 6

1.46 ГБ

В этой теме нет новых непрочитанных сообщений. Бегущий в лабиринте: Испытание огнём / Maze Runner: The Scorch Trials (Уэс Болл) [фантастика, боевик, триллер, 2015] HDRip, dub [Звук с TS]

Dracon

1925 | 448

1.37 ГБ

В этой теме нет новых непрочитанных сообщений. Бегущий в лабиринте: Испытание огнём / Maze Runner: The Scorch Trials (Уэс Болл) [фантастика, боевик, триллер, 2015] HDRip, dub [Звук с TS]

Dracon

587 | 155

2.06 ГБ

В этой теме нет новых непрочитанных сообщений. Бегущий в лабиринте: Испытание огнём / Maze Runner: The Scorch Trials (Уэс Болл) [фантастика, боевик, триллер, 2015] WEBRip 720p, dub [Звук с CAMRip]

Dracon

7082 | 759

3.8 ГБ

В этой теме нет новых непрочитанных сообщений. Бегущий в лабиринте: Испытание огнём / Maze Runner: The Scorch Trials (Уэс Болл) [фантастика, боевик, триллер, 2015] DVD5, Dub+Sub [Лицензия]

Dracon

346 | 71

4.36 ГБ

В этой теме нет новых непрочитанных сообщений. Бегущий в лабиринте: Испытание огнём / Maze Runner: The Scorch Trials (Уэс Болл) [фантастика, боевик, триллер, 2015] HDRip-AVC, Dub [Лицензия]

Dracon

4584 | 444

2.67 ГБ

В этой теме нет новых непрочитанных сообщений. Бегущий в лабиринте: Испытание огнём / Maze Runner: The Scorch Trials (Уэс Болл) [фантастика, боевик, триллер, 2015] HDRip, Dub [Лицензия]

Dracon

7199 | 639

2.05 ГБ


Начать новую тему Ответить на тему  [ 1 сообщение ] 




Для Мосгорсуда, Роскомнадзора и рекламодателей:: mosgorsud-torrent[собачка]yandex.ru