Торрент файл
скачать торрент магнет ссылка Добавлен: 13 ноя 2015, 16:43
Размер: 1.37 ГБ
Сидеров: 273
Личеров: 17
Статус: (salma3)
Автор

СообщениеДобавлено: 13 ноя 2015, 16:43 

Не в сети
Зам. Админа
Аватара пользователя
Дата регистрации:
02 дек 2010, 12:39
Спасибо: 12461 / 214
Сообщения: 27968
Информация о фильме
Название: Эвакуаторщик
Оригинальное название: Wrecker
Год выпуска: 2015
Жанр: Триллер
Режиссер: Майкл Бафаро
В ролях: Анна Хатчисон, Андреа Уитберн, Дженнифер Кениг, Дон Нодел, Майкл Диксон, Кертис Магвайр, Лори Уотт, Селия Рид

О фильме: Когда у Эмили с подругой ломается в машине навигатор, они сворачивают не туда и становятся мишенью беспощадного и сумасшедшего эвакуаторщика, который начинает играть с ними в смертельную игру кошки-мышки.



Выпущено: Канада, IW Wrecker Productions
Продолжительность: 01:23:15
Озвучка: Любительская одноголосая (Хихикающий доктор) по субтитрам Марла Z, Хихикающий доктор

Файл
Качество: WEB-DLRip (AVC)
Видео: MPEG-4 AVC, 1788 Кбит/с, 1024x424
Аудио: Русский (AC3, 2 ch, 192 Кбит/с), английский (AC3, 6 ch, 384 Кбит/с)
Субтитры: Английские

General
Unique ID : 233655626111442862099887694483284426185 (0xAFC86FCB968C83B6863E68D255A9FDC9)
Complete name : C:Wrecker.2015.xixidok.WEBDLRip.AVC.ExKinoRay.mkv
Format : Matroska
Format version : Version 4 / Version 2
File size : 1.37 GiB
Duration : 1h 23mn
Overall bit rate : 2 363 Kbps
Movie name : Wrecker 2015 from ExKinoRay
Encoded date : UTC 2015-11-09 05:12:07
Writing application : mkvmerge v6.6.0 ('The Edge Of The In Between') built on Dec 1 2013 17:55:00
Writing library : libebml v1.3.0 + libmatroska v1.4.1

Video
ID : 1
Format : AVC
Format/Info : Advanced Video Codec
Format profile : High@L4.1
Format settings, CABAC : Yes
Format settings, ReFrames : 10 frames
Codec ID : V_MPEG4/ISO/AVC
Duration : 1h 23mn
Bit rate : 1 788 Kbps
Width : 1 024 pixels
Height : 424 pixels
Display aspect ratio : 2.40:1
Frame rate mode : Constant
Frame rate : 23.976 fps
Color space : YUV
Chroma subsampling : 4:2:0
Bit depth : 8 bits
Scan type : Progressive
Bits/(Pixel*Frame) : 0.172
Stream size : 1.01 GiB (74%)
Title : Enigma
Writing library : x264 core 133 r2334 a3ac64b
Encoding settings : cabac=1 / ref=10 / deblock=1:-2:-2 / analyse=0x3:0x113 / me=umh / subme=10 / psy=1 / psy_rd=1.05:0.15 / mixed_ref=1 / me_range=32 / chroma_me=1 / trellis=2 / 8x8dct=1 / cqm=0 / deadzone=21,11 / fast_pskip=0 / chroma_qp_offset=-3 / threads=12 / lookahead_threads=2 / sliced_threads=0 / nr=0 / decimate=0 / interlaced=0 / bluray_compat=0 / constrained_intra=0 / bframes=9 / b_pyramid=2 / b_adapt=2 / b_bias=0 / direct=3 / weightb=1 / open_gop=0 / weightp=2 / keyint=240 / keyint_min=23 / scenecut=40 / intra_refresh=0 / rc_lookahead=40 / rc=2pass / mbtree=0 / bitrate=1788 / ratetol=1.0 / qcomp=0.60 / qpmin=0 / qpmax=51 / qpstep=4 / cplxblur=20.0 / qblur=0.5 / vbv_maxrate=50000 / vbv_bufsize=62500 / nal_hrd=none / ip_ratio=1.40 / pb_ratio=1.30 / aq=1:1.00
Language : English
Default : Yes
Forced : No
Color primaries : BT.709
Transfer characteristics : BT.709
Matrix coefficients : BT.709

Audio #1
ID : 2
Format : AC-3
Format/Info : Audio Coding 3
Mode extension : CM (complete main)
Format settings, Endianness : Big
Codec ID : A_AC3
Duration : 1h 23mn
Bit rate mode : Constant
Bit rate : 192 Kbps
Channel(s) : 2 channels
Channel positions : Front: L R
Sampling rate : 44.1 KHz
Bit depth : 16 bits
Compression mode : Lossy
Stream size : 114 MiB (8%)
Title : xixidok
Language : Russian
Default : No
Forced : No

Audio #2
ID : 3
Format : AC-3
Format/Info : Audio Coding 3
Mode extension : CM (complete main)
Format settings, Endianness : Big
Codec ID : A_AC3
Duration : 1h 23mn
Bit rate mode : Constant
Bit rate : 384 Kbps
Channel(s) : 6 channels
Channel positions : Front: L C R, Side: L R, LFE
Sampling rate : 48.0 KHz
Bit depth : 16 bits
Compression mode : Lossy
Stream size : 229 MiB (16%)
Language : English
Default : No
Forced : No

Text
ID : 4
Format : UTF-8
Codec ID : S_TEXT/UTF8
Codec ID/Info : UTF-8 Plain Text
Language : English
Default : No
Forced : No

Menu
00:00:00.000 : en:Stranded
00:02:08.000 : en:Ladies in the Desert
00:09:25.000 : en:Devil's Pass
00:13:50.000 : en:Pit Stop
00:18:04.000 : en:“His job or our lives.â€
00:21:48.000 : en:Glad That's Over With
00:26:05.000 : en:Diner
00:35:22.000 : en:Roadblock
00:41:00.000 : en:“Try to keep up with this...â€
00:44:37.000 : en:Where's Leslie?
00:50:06.000 : en:No Reception
00:56:04.000 : en:To Protect and Serve
01:02:26.000 : en:Out of Gas
01:08:49.000 : en:Engine Light is On
01:13:32.000 : en:Playing Chicken
01:20:57.000 : en:Credits





реклама партнёра


Вернуться к началу
 Профиль  
 
   Похожие торренты   Автор   Торрент   Размер 
В этой теме нет новых непрочитанных сообщений. Вредитель / Wrecker (Майкл Бафаро) [2015, триллер, WEB-DL 720p] avo

Dracon

330 | 26

2.66 ГБ

В этой теме нет новых непрочитанных сообщений. Кибер / Blackhat (Майкл Манн) [боевик, триллер, драма, криминал, детектив, 2015] WEB-DLRip, Dub [iTunes]

Dracon

45 | 2

2.05 ГБ

В этой теме нет новых непрочитанных сообщений. Кибер / Blackhat (Майкл Манн) [боевик, триллер, драма, криминал, детектив, 2015] WEB-DLRip 720p, Dub [iTunes]

Dracon

46 | 4

4.12 ГБ

В этой теме нет новых непрочитанных сообщений. Зверинец  / Zoo [Season 1, Episodes 1-13 of 13] (Стивен А. Эделсон, Брэд Андерсон, Майкл Кэтлман) [Триллер, драма, экранизация, 2015] WEB-DLRip [BaibaKo]

Dracon

280 | 237

7.19 ГБ

В этой теме нет новых непрочитанных сообщений. Зверинец / Zoo [Season 1, Episodes 1-13 of 13] (Стивен А. Эделсон, Брэд Андерсон, Майкл Кэтлман) [Триллер, драма, экранизация, 2015] WEB-DLRip [NewStudio]

Dracon

183 | 87

6.95 ГБ

В этой теме нет новых непрочитанных сообщений. Ганнибал / Hannibal [03х01-13 из 13] (Гильермо Наварро, Майкл Раймер, Дэвид Слэйд) [Детектив, триллер, криминал, драма, 2015] WEB-DLRip [NewStudio]

Dracon

127 | 50

7.65 ГБ

В этой теме нет новых непрочитанных сообщений. Родина / Homeland [05x01-06 из 12] (Лесли Линка Глаттер, Майкл Куэста, Дэниэл Эттиэс) [2015, триллер, драма, детектив, WEB-DLRip | HamsterStudio]

Nickolas3435

47 | 188

2.93 ГБ


Начать новую тему Ответить на тему  [ 1 сообщение ] 




Для Мосгорсуда, Роскомнадзора и рекламодателей:: mosgorsud-torrent[собачка]yandex.ru