Торрент файл
скачать торрент магнет ссылка Добавлен: 13 ноя 2015, 16:43
Размер: 2.66 ГБ
Сидеров: 330
Личеров: 26
Статус: (salma3)
Автор

СообщениеДобавлено: 13 ноя 2015, 16:43 

Не в сети
Зам. Админа
Аватара пользователя
Дата регистрации:
02 дек 2010, 12:39
Спасибо: 12460 / 214
Сообщения: 27968
Информация о фильме
Название: Вредитель
Оригинальное название: Wrecker
Год выпуска: 2015
Жанр: триллер
Режиссер: Майкл Бафаро
В ролях: Анна Хатчисон, Андреа Уитберн, Дженнифер Кениг, Дон Нодел, Майкл Диксон, Кертис Магвайр, Лори Уотт, Селия Рид, Ashley Evans, Kurt Harder

О фильме: Лучшие подруги Эмили и Лесли решают отправиться в поездку, чтобы отдохнуть от жизни. По совету навигатора они сворачивают с оживленного шоссе на пустынную дорогу. Вскоре они становятся объектом преследования таинственной грузовика, который заставляет девушек сыграть в опасную игру, превращая их поездку в жуткий кошмар.



Выпущено: Канада / IW Wrecker Productions
Продолжительность: 01:23:15
Озвучивание: Любительское (одноголосое) [Васька Куролесов], перевод [МЕГАПЫХАРЬ]

Файл
Формат: MKV
Качество: WEB-DL 720p
Видео: MPEG-4 AVC, 3907 kb/s, 1280x530
Аудио: Russian: AC3, 192 kb/s (2 ch) / English: AC3, 384 kb/s (6 ch)
Субтитры: English

Format : Matroska
Format version : Version 2
File size : 2.66 GiB
Duration : 1h 23mn
Overall bit rate : 4 574 Kbps
Movie name : RARBG.COM - Wrecker.2015.720p.WEB-DL.DD5.1.H264-RARBG
Encoded date : UTC 2015-11-09 13:00:33
Writing application : mkvmerge v7.8.0 ('River Man') 32bit built on Apr 3 2015 12:11:22
Writing library : libebml v1.3.1 + libmatroska v1.4.2

Video
ID : 1
Format : AVC
Format/Info : Advanced Video Codec
Format profile : Main@L3.1
Format settings, CABAC : No
Format settings, ReFrames : 2 frames
Codec ID : V_MPEG4/ISO/AVC
Duration : 1h 23mn
Bit rate : 3 907 Kbps
Width : 1 280 pixels
Height : 530 pixels
Display aspect ratio : 2.40:1
Frame rate mode : Constant
Frame rate : 23.976 fps
Color space : YUV
Chroma subsampling : 4:2:0
Bit depth : 8 bits
Scan type : Progressive
Bits/(Pixel*Frame) : 0.240
Stream size : 2.27 GiB (85%)
Language : English
Default : Yes
Forced : No
Color range : Limited
Color primaries : BT.709
Transfer characteristics : BT.709
Matrix coefficients : BT.709

Audio #1
ID : 2
Format : AC-3
Format/Info : Audio Coding 3
Mode extension : CM (complete main)
Format settings, Endianness : Big
Codec ID : A_AC3
Duration : 1h 23mn
Bit rate mode : Constant
Bit rate : 192 Kbps
Channel(s) : 2 channels
Channel positions : Front: L R
Sampling rate : 48.0 KHz
Bit depth : 16 bits
Compression mode : Lossy
Stream size : 114 MiB (4%)
Language : Russian
Default : Yes
Forced : No

Audio #2
ID : 3
Format : AC-3
Format/Info : Audio Coding 3
Mode extension : CM (complete main)
Format settings, Endianness : Big
Codec ID : A_AC3
Duration : 1h 23mn
Bit rate mode : Constant
Bit rate : 384 Kbps
Channel(s) : 6 channels
Channel positions : Front: L C R, Side: L R, LFE
Sampling rate : 48.0 KHz
Bit depth : 16 bits
Compression mode : Lossy
Stream size : 229 MiB (8%)
Language : English
Default : No
Forced : No

Text
ID : 4
Format : UTF-8
Codec ID : S_TEXT/UTF8
Codec ID/Info : UTF-8 Plain Text
Language : English
Default : No
Forced : No

Menu
00:00:00.000 : en:Stranded
00:02:08.000 : en:Ladies in the Desert
00:09:25.000 : en:Devil's Pass
00:13:50.000 : en:Pit Stop
00:18:04.000 : en:“His job or our lives.â€
00:21:48.000 : en:Glad That's Over With
00:26:05.000 : en:Diner
00:35:22.000 : en:Roadblock
00:41:00.000 : en:“Try to keep up with this...â€
00:44:37.000 : en:Where's Leslie?
00:50:06.000 : en:No Reception
00:56:04.000 : en:To Protect and Serve
01:02:26.000 : en:Out of Gas
01:08:49.000 : en:Engine Light is On
01:13:32.000 : en:Playing Chicken
01:20:57.000 : en:Credits




реклама партнёра


Вернуться к началу
 Профиль  
 
   Похожие торренты   Автор   Торрент   Размер 
В этой теме нет новых непрочитанных сообщений. Эвакуаторщик / Wrecker (Майкл Бафаро) [2015, Триллер, WEB-DLRip-AVC] avo

Dracon

273 | 17

1.37 ГБ

В этой теме нет новых непрочитанных сообщений. Мастера секса / Masters of Sex [S01-03] (Майкл Аптед, Майкл Диннер) [2013-2015, Драма, HDTVRip 720p, WEB-DL 720p | BaibaKo]

Dracon

9 | 31

80.23 ГБ

В этой теме нет новых непрочитанных сообщений. Страдающий амнезией / Amnesiac (Майкл Полиш) [Ужасы, триллер, драма, детектив, 2015] BDRip 720p, dvo+avo

Dracon

383 | 41

4.71 ГБ

В этой теме нет новых непрочитанных сообщений. Кибер / Blackhat (Майкл Манн) [боевик, триллер, драма, криминал, детектив, 2015] BDRip 720p, Dub+Sub [лицензия]

Dracon

75 | 3

8.12 ГБ

В этой теме нет новых непрочитанных сообщений. Кибер / Blackhat (Майкл Манн) [боевик, триллер, драма, криминал, детектив, 2015] WEB-DLRip 720p, Dub [iTunes]

Dracon

46 | 4

4.12 ГБ

В этой теме нет новых непрочитанных сообщений. Зверинец  / Zoo [Season 1, Episodes 1-13 of 13] (Стивен А. Эделсон, Брэд Андерсон, Майкл Кэтлман) [Триллер, драма, экранизация, 2015] WEB-DL 720p [NewStudio]

Dracon

54 | 25

17.97 ГБ

В этой теме нет новых непрочитанных сообщений. Зверинец  / Zoo [Season 1, Episodes 1-9 of 13] (Стивен А. Эделсон, Брэд Андерсон, Майкл Кэтлман) [Триллер, драма, экранизация, 2015] WEB-DL 720p [BaibaKo]

Dracon

0 | 0

12.57 ГБ


Начать новую тему Ответить на тему  [ 1 сообщение ] 




Для Мосгорсуда, Роскомнадзора и рекламодателей:: mosgorsud-torrent[собачка]yandex.ru