Торрент файл
скачать торрент магнет ссылка Добавлен: 13 ноя 2015, 16:18
Размер: 1.46 ГБ
Сидеров: 235
Личеров: 14
Статус: (salma3)
Автор

СообщениеДобавлено: 13 ноя 2015, 16:18 

Не в сети
Зам. Админа
Аватара пользователя
Дата регистрации:
02 дек 2010, 12:39
Спасибо: 12458 / 214
Сообщения: 27968
Дикий город / Bou Chau Mai Sing

Производство: Гонконг, Beijing East Light Film Co., East Light Film, Mei Ah Films Production Co. Ltd.
Жанр: Боевик, Триллер, Криминал
Режиссер: Ринго Лам
Актеры: Луис Ку, Шон Юе, Лия Тун, Сяо-Чуань Чан, Джек Као, Сэм Ли, Филип Нг, Дейв Вон, Саймон Ям

Описание:
Отставной полицейский, содержащий бар, помогает пьяной девушке и привозит ее домой. Когда его брат отправляется, чтобы проводить, проспавшуюся после бурной ночи девушку, на них нападают бандиты и увозят незнакомку в неизвестном направлении. Он бросается ее спасать, понимая, что все больше погружается пучину лжи и преступлений, который он, верный зову полицейского долга, должен будет распутать и восстановить справделивость.



Продолжительность: 01:41:34
Качество видео: HDRip-AVC
Перевод: Двухголосый закадровый, любительский (2D)
Язык субтитров: Английский
Вид субтитров: Вшитые отключаемые

Видео: AVC, 1024x428 (2.35:1), 24.000 fps, 1 862 Kbps (0.177 bit/pixel)
Аудио: AC-3, 48.0 KHz, 2 ch, 192 Kbps, CBR
Сэмпл: скачать

Формат : Matroska
Версия формата : Version 2
Размер файла : 1,46 Гбайт
Продолжительность : 1 ч. 41 м.
Общий поток : 2055 Кбит/сек
Дата кодирования : UTC 2015-11-11 12:16:35
Программа кодирования : mkvmerge v5.3.0 ('I could have danced') built on Feb 9 2012 10:38:07
Библиотека кодирования : libebml v1.2.3 + libmatroska v1.3.0
Attachment : Yes

Видео
Идентификатор : 1
Формат : AVC
Формат/Информация : Advanced Video Codec
Профиль формата : High@L4.1
Параметр CABAC формата : Да
Параметр ReFrames формата : 9 кадров
Идентификатор кодека : V_MPEG4/ISO/AVC
Продолжительность : 1 ч. 41 м.
Битрейт : 1862 Кбит/сек
Ширина : 1024 пикселя
Высота : 428 пикселей
Соотношение сторон : 2,40:1
Режим частоты кадров : Постоянный
Частота кадров : 24,000 кадра/сек
Цветовое пространство : YUV
Субдискретизация насыщенности : 4:2:0
Битовая глубина : 8 бит
Тип развёртки : Прогрессивная
Бит/(Пиксели*Кадры) : 0.177
Размер потока : 1,29 Гбайт (89%)
Библиотека кодирования : x264 core 146 r2538 121396c
Настройки программы : cabac=1 / ref=9 / deblock=1:-2:-1 / analyse=0x3:0x133 / me=umh / subme=10 / psy=1 / psy_rd=1.00:0.15 / mixed_ref=1 / me_range=32 / chroma_me=1 / trellis=2 / 8x8dct=1 / cqm=0 / deadzone=21,11 / fast_pskip=0 / chroma_qp_offset=-3 / threads=12 / lookahead_threads=2 / sliced_threads=0 / nr=0 / decimate=0 / interlaced=0 / bluray_compat=0 / constrained_intra=0 / bframes=7 / b_pyramid=2 / b_adapt=2 / b_bias=0 / direct=3 / weightb=1 / open_gop=0 / weightp=2 / keyint=240 / keyint_min=24 / scenecut=40 / intra_refresh=0 / rc=2pass / mbtree=0 / bitrate=1862 / ratetol=1.0 / qcomp=0.60 / qpmin=0 / qpmax=69 / qpstep=4 / cplxblur=20.0 / qblur=0.5 / ip_ratio=1.40 / pb_ratio=1.30 / aq=1:1.00
Язык : English
Default : Да
Forced : Нет

Аудио
Идентификатор : 2
Формат : AC-3
Формат/Информация : Audio Coding 3
Расширение режима : CM (complete main)
Параметр Endianness формата : Big
Идентификатор кодека : A_AC3
Продолжительность : 1 ч. 41 м.
Вид битрейта : Постоянный
Битрейт : 192 Кбит/сек
Каналы : 2 канала
Расположение каналов : Front: L R
Частота : 48,0 КГц
Битовая глубина : 16 бит
Метод сжатия : С потерями
Задержка видео : 16 мс.
Размер потока : 139 Мбайт (9%)
Заголовок : 2D
Язык : Russian
Default : Нет
Forced : Нет

Текст
Идентификатор : 3
Формат : UTF-8
Идентификатор кодека : S_TEXT/UTF8
Идентификатор кодека/Информация : UTF-8 Plain Text
Заголовок : English-Forced
Язык : English
Default : Да
Forced : Да




реклама партнёра


Вернуться к началу
 Профиль  
 
   Похожие торренты   Автор   Торрент   Размер 
В этой теме нет новых непрочитанных сообщений. Дикий город / Bou Chau Mai Sing (Ринго Лам) [2015, боевик, триллер, криминал, BDRip 720р] dvo

Dracon

55 | 3

4.5 ГБ

В этой теме нет новых непрочитанных сообщений. Дикий город / Bou Chau Mai Sing (Ринго Лам) [2015, Боевик, триллер, криминал, WEBRip 1080p] avo

Dracon

61 | 4

2.26 ГБ

В этой теме нет новых непрочитанных сообщений. Город грехов 2: Женщина, ради которой стоит убивать / Sin City: A Dame to Kill For [боевик, триллер, криминал, 2014] HDRip-AVC, Dub [Лицезия]

Dracon

858 | 27

2.05 ГБ

В этой теме нет новых непрочитанных сообщений. Город грехов 2: Женщина, ради которой стоит убивать / Sin City: A Dame to Kill For (Фрэнк Миллер, Роберт Родригес) [2014, боевик, триллер, криминал, HDRip | Лицезия] Dub

Dracon

3626 | 102

1.46 ГБ

В этой теме нет новых непрочитанных сообщений. Огненный город: Последние дни / Fire City: End of Days [ужасы, фэнтези, триллер, 2015] HDRip, Avo

salma3

140 | 2

1.4 ГБ

В этой теме нет новых непрочитанных сообщений. Гелиос / Helios [боевик, триллер, криминал, 2015] HDRip, Dvo

salma3

36 | 2

2.06 ГБ

В этой теме нет новых непрочитанных сообщений. Взаимное притяжение / Зов крови / Jazbaa [боевик, триллер, драма, криминал, 2015] HDRip, Mvo

salma3

120 | 10

2 ГБ


Начать новую тему Ответить на тему  [ 1 сообщение ] 




Для Мосгорсуда, Роскомнадзора и рекламодателей:: mosgorsud-torrent[собачка]yandex.ru