Торрент файл
скачать торрент магнет ссылка Добавлен: 03 ноя 2015, 21:51
Размер: 1.46 ГБ
Сидеров: 34
Личеров: 3
Статус: (salma3)
Автор

СообщениеДобавлено: 03 ноя 2015, 21:51 

В сети
Супермодератор
Аватара пользователя
Дата регистрации:
15 фев 2012, 16:44
Возраст: 27
Спасибо: 5139 / 2090
Сообщения: 17443
Никогда не рано умирать / Never Too Young To Die

Год выпуска: 1986
Жанр: Боевик
Режиссер: Джил Беттман

В ролях: Джон Стамос, Вэнити, Джин Симмонс, Джордж Лэзенби, Питер Квон, Эд Брок, Джон Андерсон, Роберт Инглунд, Тара Букман, Кертис Тейлор

Описание:Лэнс собирается отомстить за смерть отца, погибшего от рук коварного злодея Велвета фон Рагнера. Велвет задумал уничтожить Лос-Анджелес, лишив его воды. С помощью сексапильного агента Данджи Диринг Лэнс преследует фон Рагнера и разрушает его планы.



Страна: США
Продолжительность: 01:36:18
Перевод: Авторский [Володарский]

Файл
Качество: DVDRip
Формат файла: AVI
Видео кодек: XviD
Аудио кодек: AC3
Видео: 640x480 (1.33:1), 25 fps, XviD MPEG-4 ~1768 kbps avg, 0.23 bit/pixel
Аудио 1: 48 kHz, AC3 Dolby Digital, 2/0 (L,R) ch, ~192 kbps [русский]
Аудио 2: 48 kHz, AC3 Dolby Digital, 2/0 (L,R) ch, ~192 kbps [английский]



Общее
Полное имя : D:ААА2Для этого нельзя быть слишком молодым 2.avi
Формат : AVI
Формат/Информация : Audio Video Interleave
Размер файла : 1,46 Гбайт
Продолжительность : 1 ч. 36 м.
Общий поток : 2168 Кбит/сек
Программа кодирования : VirtualDubMod 1.5.10.2 (build 2540/release)
Библиотека кодирования : VirtualDubMod build 2540/release

Видео
Идентификатор : 0
Формат : MPEG-4 Visual
Профиль формата : Advanced Simple@L5
Параметр BVOP формата : 2
Параметр QPel формата : Нет
Параметр GMC формата : Без точки перехода
Параметр матрицы формата : Default (MPEG)
Режим смешивания : Сжатый битовый поток
Идентификатор кодека : XVID
Идентификатор кодека/Подсказка : XviD
Продолжительность : 1 ч. 36 м.
Битрейт : 1770 Кбит/сек
Ширина : 640 пикселей
Высота : 480 пикселей
Соотношение сторон : 4:3
Частота кадров : 25,000 кадров/сек
Цветовое пространство : YUV
Субдискретизация насыщенности : 4:2:0
Битовая глубина : 8 бит
Тип развёртки : Прогрессивная
Метод сжатия : С потерями
Бит/(Пиксели*Кадры) : 0.230
Размер потока : 1,19 Гбайт (82%)
Библиотека кодирования : XviD 1.2.1 (UTC 2008-12-04)

Аудио #1
Идентификатор : 1
Формат : AC-3
Формат/Информация : Audio Coding 3
Расширение режима : CM (complete main)
Параметр Endianness формата : Big
Идентификатор кодека : 2000
Продолжительность : 1 ч. 36 м.
Вид битрейта : Постоянный
Битрейт : 192 Кбит/сек
Каналы : 2 канала
Расположение каналов : Front: L R
Частота : 48,0 КГц
Битовая глубина : 16 бит
Метод сжатия : С потерями
Задержка видео : 18 мс.
Размер потока : 132 Мбайт (9%)
Выравнивание : Разделение по промежуткам
Продолжительность промежутка : 40 мс. (1,00 видеокадр)
Время предзагрузки промежутка : 500 мс.

Аудио #2
Идентификатор : 2
Формат : AC-3
Формат/Информация : Audio Coding 3
Расширение режима : CM (complete main)
Параметр Endianness формата : Big
Идентификатор кодека : 2000
Продолжительность : 1 ч. 36 м.
Вид битрейта : Постоянный
Битрейт : 192 Кбит/сек
Каналы : 2 канала
Расположение каналов : Front: L R
Частота : 48,0 КГц
Битовая глубина : 16 бит
Метод сжатия : С потерями
Размер потока : 132 Мбайт (9%)
Выравнивание : Разделение по промежуткам
Продолжительность промежутка : 40 мс. (1,00 видеокадр)
Время предзагрузки промежутка : 500 мс.



Релиз:


_________________



реклама партнёра


Вернуться к началу
 Профиль Отправить личное сообщение  
 
   Похожие торренты   Автор   Торрент   Размер 
В этой теме нет новых непрочитанных сообщений. Юнг-Гу во времени / Young Gun in the time (О Ён Ду / Oh Young-Doo) [2012г., детектив, DVDRip] Sub

Alfredovich

2 | 2

1.46 ГБ

В этой теме нет новых непрочитанных сообщений. Искусство умирать / Искусство смерти / The Art of Dying [криминал, триллер, 1991] DVDRip, Avo

salma3

5 | 3

1.45 ГБ

В этой теме нет новых непрочитанных сообщений. Brighton Rock - Young, Wild And Free [1986, Melodic Hard Rock, MP3]

PriZraK

4 | 2

95.76 МБ

В этой теме нет новых непрочитанных сообщений. Young Girls Love Sex / Молодые Девушки Любят Секс (Digital Sin) (Christy Mack, Cameron Canada, Alexis Monroe, and Britney Young, with Mr. Pete...) [2012 г., Gonzo, 18+ Teens, DVDRip 352p]

friizze

0 | 6

1.37 ГБ

В этой теме нет новых непрочитанных сообщений. Могучий Джо Янг / Mighty Joe Young [фантастика, фэнтези, боевик, триллер, приключения, семейный, 1998] DVDRip, Mvo+Avo

salma3

36 | 4

1.46 ГБ

В этой теме нет новых непрочитанных сообщений. Океан / Samundar [Драма, боевик, 1986] DVDRip, Dub

salma3

2 | 3

1.46 ГБ

В этой теме нет новых непрочитанных сообщений. Карательница / L'exécutrice [боевик, триллер, 1986] DVDRip, Avo

salma3

299 | 91

1.43 ГБ


Начать новую тему Ответить на тему  [ 1 сообщение ] 




Для Мосгорсуда, Роскомнадзора и рекламодателей:: mosgorsud-torrent[собачка]yandex.ru