Торрент файл
скачать торрент магнет ссылка Добавлен: 31 окт 2015, 01:37
Размер: 1.46 ГБ
Сидеров: 34
Личеров: 2
Статус: (salma3)
Автор

СообщениеДобавлено: 31 окт 2015, 01:37 

Не в сети
Супермодератор
Аватара пользователя
Дата регистрации:
15 фев 2012, 16:44
Возраст: 27
Спасибо: 5143 / 2090
Сообщения: 17513
Звездный десант / Star Command

Год выпуска: 1996
Жанр: Фантастика
Режиссер: Джим Джонстон

В ролях:Джей Андервуд, Дженнифер Брэнсфорд, Крис Конрад, Темби Лок, Келли Ху, Иван Сергей, Ева Хаберманн, Морган Фэйрчайлд, Чад Эверетт, Ганс Мартин Штир

Описание:
Команда кадетов-выпускников космической академии отправляется в свой первый настоящий полёт, и сразу же сталкивается с настоящей угрозой. После вражеской атаки все высшие офицерские чины на корабле погибают, и новичкам приходится принять командование на себя.



Страна: США, Германия
Продолжительность: 01:32:17
Перевод: Профессиональный [многоголосый]

Файл
Качество: DVDRip
Формат файла: AVI
Видео кодек: XviD
Аудио кодек: AC3
Видео: 640x480 (1.33:1), 25 fps, XviD MPEG-4 ~1673 kbps avg, 0.22 bit/pixel
Аудио 1: 48 kHz, AC3 Dolby Digital, 2/0 (L,R) ch, ~192 kbps [русский]
Аудио 2: 48 kHz, AC3 Dolby Digital, 2/0 (L,R) ch, ~192 kbps [английский]
Аудио 3: 48 kHz, AC3 Dolby Digital, 2/0 (L,R) ch, ~192 kbps [немецкий]



Общее
Полное имя : D:ААА2Звездный десант.avi
Формат : AVI
Формат/Информация : Audio Video Interleave
Размер файла : 1,46 Гбайт
Продолжительность : 1 ч. 32 м.
Общий поток : 2270 Кбит/сек
Программа кодирования : VirtualDubMod 1.5.10.2 (build 2540/release)
Библиотека кодирования : VirtualDubMod build 2540/release

Видео
Идентификатор : 0
Формат : MPEG-4 Visual
Профиль формата : Advanced Simple@L5
Параметр BVOP формата : 2
Параметр QPel формата : Нет
Параметр GMC формата : Без точки перехода
Параметр матрицы формата : Default (MPEG)
Режим смешивания : Сжатый битовый поток
Идентификатор кодека : XVID
Идентификатор кодека/Подсказка : XviD
Продолжительность : 1 ч. 32 м.
Битрейт : 1675 Кбит/сек
Ширина : 640 пикселей
Высота : 480 пикселей
Соотношение сторон : 4:3
Частота кадров : 25,000 кадров/сек
Цветовое пространство : YUV
Субдискретизация насыщенности : 4:2:0
Битовая глубина : 8 бит
Тип развёртки : Прогрессивная
Метод сжатия : С потерями
Бит/(Пиксели*Кадры) : 0.218
Размер потока : 1,08 Гбайт (74%)
Библиотека кодирования : XviD 1.2.1 (UTC 2008-12-04)

Аудио #1
Идентификатор : 1
Формат : AC-3
Формат/Информация : Audio Coding 3
Расширение режима : CM (complete main)
Параметр Endianness формата : Big
Идентификатор кодека : 2000
Продолжительность : 1 ч. 32 м.
Вид битрейта : Постоянный
Битрейт : 192 Кбит/сек
Каналы : 2 канала
Расположение каналов : Front: L R
Частота : 48,0 КГц
Битовая глубина : 16 бит
Метод сжатия : С потерями
Размер потока : 127 Мбайт (8%)
Выравнивание : Разделение по промежуткам
Продолжительность промежутка : 40 мс. (1,00 видеокадр)
Время предзагрузки промежутка : 500 мс.

Аудио #2
Идентификатор : 2
Формат : AC-3
Формат/Информация : Audio Coding 3
Расширение режима : CM (complete main)
Параметр Endianness формата : Big
Идентификатор кодека : 2000
Продолжительность : 1 ч. 32 м.
Вид битрейта : Постоянный
Битрейт : 192 Кбит/сек
Каналы : 2 канала
Расположение каналов : Front: L R
Частота : 48,0 КГц
Битовая глубина : 16 бит
Метод сжатия : С потерями
Размер потока : 127 Мбайт (8%)
Выравнивание : Разделение по промежуткам
Продолжительность промежутка : 40 мс. (1,00 видеокадр)
Время предзагрузки промежутка : 500 мс.

Аудио #3
Идентификатор : 3
Формат : AC-3
Формат/Информация : Audio Coding 3
Расширение режима : CM (complete main)
Параметр Endianness формата : Big
Идентификатор кодека : 2000
Продолжительность : 1 ч. 32 м.
Вид битрейта : Постоянный
Битрейт : 192 Кбит/сек
Каналы : 2 канала
Расположение каналов : Front: L R
Частота : 48,0 КГц
Битовая глубина : 16 бит
Метод сжатия : С потерями
Размер потока : 127 Мбайт (8%)
Выравнивание : Разделение по промежуткам
Продолжительность промежутка : 40 мс. (1,00 видеокадр)
Время предзагрузки промежутка : 500 мс.



Релиз:


_________________



реклама партнёра


Вернуться к началу
 Профиль Отправить личное сообщение  
 
   Похожие торренты   Автор   Торрент   Размер 
В этой теме нет новых непрочитанных сообщений. Звездный десант 3: Мародер / Starship Troopers 3: Marauder [фантастика, боевик, приключения, 2008] BDRip 1080p, Mvo

salma3

38 | 5

11.64 ГБ

В этой теме нет новых непрочитанных сообщений. Звездный десант 3: Мародер / Starship Troopers 3: Marauder [фантастика, боевик, приключения, 2008] BDRip 720p, Mvo+SUB

salma3

73 | 8

5.52 ГБ

В этой теме нет новых непрочитанных сообщений. Звёздный охотник / Star Hunter [Фантастика, боевик, 1995] DVDRip, Mvo

salma3

41 | 21

1.7 ГБ

В этой теме нет новых непрочитанных сообщений. Звездный путь: Одиссея / Star Quest: The Odyssey [фантастика, 2009] DVDRip, Dvo

salma3

12 | 3

701.72 МБ

В этой теме нет новых непрочитанных сообщений. Звёздный путь: Вояджер / Star Trek: Voyager / 1-7 сезоны 1-172 серии из 172 [фантастика, боевик, 1995-2001] DVDRip, Mvo [Z'Ha'Dum]

salma3

9 | 21

106.74 ГБ

В этой теме нет новых непрочитанных сообщений. Звездный путь: Энтерпрайз / Star Trek: Enterprise / 1-4 сезоны 1-98 серии из 98 [фантастика, боевик, приключен 2001–2005] DVDRip, Mvo [СТС]

salma3

9 | 7

36.83 ГБ

В этой теме нет новых непрочитанных сообщений. Звездный путь: Следующее поколение / Star Trek: The Next Generation / 1-7 сезоны 1-178 серии из 178 [фантастика, боевик, приключения, 1987-1994] DVDRip, Mvo [AXN Sci-fi]

salma3

8 | 19

88.84 ГБ


Начать новую тему Ответить на тему  [ 1 сообщение ] 




Для Мосгорсуда, Роскомнадзора и рекламодателей:: mosgorsud-torrent[собачка]yandex.ru