Торрент файл
скачать торрент магнет ссылка Добавлен: 13 окт 2015, 21:26
Размер: 1.46 ГБ
Сидеров: 26
Личеров: 3
Статус: (salma3)
Автор

СообщениеДобавлено: 13 окт 2015, 21:26 

Не в сети
Супермодератор
Аватара пользователя
Дата регистрации:
15 фев 2012, 16:44
Возраст: 27
Спасибо: 5143 / 2090
Сообщения: 17475
Нанятые для убийства / Hired to Kill

Год выпуска: 1990
Жанр: Боевик
Режиссер: Нико Масторакис, Питер Рейдер

В ролях: Брайан Томпсон, Оливер Рид, Джордж Кеннеди, Хосе Феррер, Мишель Моффетт, Барбара Нивен, Джордана Капра, Кендалл Конрад, Ким Лонсдэйл

Описание:
Убийце-профессионалу Фрэнку Райену для выполнения чрезвычайно важного и опасного задания необходимо проникнуть в некое государство Сайпра известное в мире своим кровавым тоталитарно-диктаторским режимом и зверствующей контрразведкой. Сочиняется шикарная легенда — и Райен становится молодым талантливым художником-модельером Сесилом Торнтоном который вместе со своей труппой манекенщиц приезжает в Сайпру для демонстрации новой коллекции одежды.



Страна: США
Продолжительность: 01:32:48
Перевод: Дублированный

Файл
Качество: DVDRip
Формат файла: AVI
Видео кодек: XviD
Аудио кодек: AC3
Видео: 720x400 (1.80:1), 25 fps, XviD MPEG-4 ~2043 kbps avg, 0.28 bit/pixel
Аудио 1: 48 kHz, AC3 Dolby Digital, 2/0 (L,R) ch, ~192 kbps [русский]


Общее
Полное имя : D:ААА2Нанятые для убийства.avi
Формат : AVI
Формат/Информация : Audio Video Interleave
Размер файла : 1,46 Гбайт
Продолжительность : 1 ч. 32 м.
Общий поток : 2245 Кбит/сек
Программа кодирования : VirtualDubMod 1.5.10.3 | http://www.virtualdub-fr.org || (build 2550/release)
Библиотека кодирования : VirtualDubMod build 2550/release

Видео
Идентификатор : 0
Формат : MPEG-4 Visual
Профиль формата : Advanced Simple@L5
Параметр BVOP формата : 2
Параметр QPel формата : Нет
Параметр GMC формата : Без точки перехода
Параметр матрицы формата : Default (MPEG)
Режим смешивания : Сжатый битовый поток
Идентификатор кодека : XVID
Идентификатор кодека/Подсказка : XviD
Продолжительность : 1 ч. 32 м.
Битрейт : 2044 Кбит/сек
Ширина : 720 пикселей
Высота : 400 пикселей
Соотношение сторон : 16:9
Частота кадров : 25,000 кадров/сек
Цветовое пространство : YUV
Субдискретизация насыщенности : 4:2:0
Битовая глубина : 8 бит
Тип развёртки : Прогрессивная
Метод сжатия : С потерями
Бит/(Пиксели*Кадры) : 0.284
Размер потока : 1,32 Гбайт (91%)
Библиотека кодирования : XviD 1.2.1 (UTC 2008-12-04)

Аудио
Идентификатор : 1
Формат : AC-3
Формат/Информация : Audio Coding 3
Расширение режима : CM (complete main)
Параметр Endianness формата : Big
Идентификатор кодека : 2000
Продолжительность : 1 ч. 32 м.
Вид битрейта : Постоянный
Битрейт : 192 Кбит/сек
Каналы : 2 канала
Расположение каналов : Front: L R
Частота : 48,0 КГц
Битовая глубина : 16 бит
Метод сжатия : С потерями
Размер потока : 127 Мбайт (9%)
Выравнивание : Разделение по промежуткам
Продолжительность промежутка : 40 мс. (1,00 видеокадр)
Время предзагрузки промежутка : 500 мс.



Релиз:


_________________



реклама партнёра


Вернуться к началу
 Профиль Отправить личное сообщение  
 
   Похожие торренты   Автор   Торрент   Размер 
В этой теме нет новых непрочитанных сообщений. 24 часа для убийства / Twenty-Four Hours to Kill [Триллер, 1965] DVDRip, Avo

salma3

30 | 12

1.47 ГБ

В этой теме нет новых непрочитанных сообщений. Почерк убийства / Stressed to Kill [триллер, драма, комедия, криминал, 2016] WEBDLRip, Mvo

salma3

227 | 5

1.46 ГБ

В этой теме нет новых непрочитанных сообщений. Смерти вопреки / Hard to Kill [боевик, триллер, драма, криминал, 1990] HDTVRip, Dvo [НТВ]

salma3

10 | 3

1.46 ГБ

В этой теме нет новых непрочитанных сообщений. Смерти вопреки / Нико-2 / Hard to Kill [боевик, триллер, драма, криминал, 1990] BDRemux 1080p, Dub+Mvo+Mvo+3Avo+Sub

salma3

23 | 10

18.68 ГБ

В этой теме нет новых непрочитанных сообщений. 3 дня на убийство / 3 Days to Kill 3 дня на убийство / 3 Days to Kill [боевик, триллер, драма, 2014] BDRip 720p, Dub [Лицензия]

Dracon

865 | 51

3.48 ГБ

В этой теме нет новых непрочитанных сообщений. Зона смерти / Kill Zone [боевик, 1993] DVDRip, Avo

salma3

87 | 6

1.37 ГБ

В этой теме нет новых непрочитанных сообщений. Убить дракона / Kill a Dragon [Боевик, 1967] DVDRip, Avo

salma3

5 | 2

1.46 ГБ


Начать новую тему Ответить на тему  [ 1 сообщение ] 




Для Мосгорсуда, Роскомнадзора и рекламодателей:: mosgorsud-torrent[собачка]yandex.ru