Торрент файл
скачать торрент магнет ссылка Добавлен: 07 окт 2015, 11:51
Размер: 2.05 ГБ
Сидеров: 6191
Личеров: 259
Статус: (salma3)
Автор

СообщениеДобавлено: 07 окт 2015, 11:51 

Не в сети
Зам. Админа
Аватара пользователя
Дата регистрации:
02 дек 2010, 12:39
Спасибо: 12460 / 214
Сообщения: 27968
Год выхода: 2015
Жанр: фантастика, триллер, детектив
Режиссер: Тарсем Сингх
В ролях: Райан Рейнольдс, Бен Кингсли, Натали Мартинес, Мэттью Гуд, Виктор Гарбер, Дерек Люк, Джейни-Линн Кинчен, Мелора Хардин, Мишель Докери, Сэмюэл Пейдж

О фильме: В будущем становится возможным победить смерть с помощью имплантации своего сознания в молодое тело, созданное методом генной инженерии. Операция эта дорогостоящая и проводится подпольно, а поэтому доступна лишь ограниченному кругу лиц. Умирающий пожилой бизнесмен решается на это и получает возможность прожить еще одну жизнь. Однако когда ему приоткрывается тайна происхождения нового тела, за ним начинает охоту секретная организация, которая не остановится ни перед чем, чтобы защитить свои интересы.


Выпущено: США / Endgame Entertainment, Ram Bergman Productions
Продолжительность: 01:52:12
Озвучивание: Дублированное [Лицензия]

Формат: AVI (XviD)
Качество: HDRip
Видео: MPEG4, XviD, 720x400 (16:9), 25.000 fps, 1 865 Kbps (0.259 bit/pixel)
Аудио: Русский (AC3, 6 ch, 448 Кбит/с), английский (AC3, 2 ch, 192 Кбит/с)
Размер: 2.05 GB
Скачать: Сэмпл


General
Complete name : BHe.Ce6ya.2015.D.HDRip.2100MB.avi
Format : AVI
Format/Info : Audio Video Interleave
File size : 2.05 GiB
Duration : 1h 52mn
Overall bit rate : 2 620 Kbps
Writing application : VirtualDubMod 1.5.10.3 | http://www.virtualdub-fr.org || (build 2550/release)
Writing library : VirtualDubMod build 2550/release

Video
ID : 0
Format : MPEG-4 Visual
Format profile : Advanced Simple@L5
Format settings, BVOP : 2
Format settings, QPel : No
Format settings, GMC : No warppoints
Format settings, Matrix : Default (MPEG)
Codec ID : XVID
Codec ID/Hint : XviD
Duration : 1h 52mn
Bit rate : 1 865 Kbps
Width : 720 pixels
Height : 400 pixels
Display aspect ratio : 16:9
Frame rate : 25.000 fps
Color space : YUV
Chroma subsampling : 4:2:0
Bit depth : 8 bits
Scan type : Progressive
Compression mode : Lossy
Bits/(Pixel*Frame) : 0.259
Stream size : 1.46 GiB (71%)
Writing library : XviD 1.2.1 (UTC 2008-12-04)

Audio #1
ID : 1
Format : AC-3
Format/Info : Audio Coding 3
Mode extension : CM (complete main)
Format settings, Endianness : Big
Codec ID : 2000
Duration : 1h 52mn
Bit rate mode : Constant
Bit rate : 448 Kbps
Channel(s) : 6 channels
Channel positions : Front: L C R, Side: L R, LFE
Sampling rate : 48.0 KHz
Bit depth : 16 bits
Compression mode : Lossy
Stream size : 360 MiB (17%)
Alignment : Split accross interleaves

Audio #2
ID : 2
Format : AC-3
Format/Info : Audio Coding 3
Mode extension : CM (complete main)
Format settings, Endianness : Big
Codec ID : 2000
Duration : 1h 52mn
Bit rate mode : Constant
Bit rate : 192 Kbps
Channel(s) : 2 channels
Channel positions : Front: L R
Sampling rate : 44.1 KHz
Bit depth : 16 bits
Compression mode : Lossy
Stream size : 154 MiB (7%)
Alignment : Split accross interleaves




реклама партнёра


Вернуться к началу
 Профиль  
 
   Похожие торренты   Автор   Торрент   Размер 
В этой теме нет новых непрочитанных сообщений. Вне/себя / Self/less (Тарсем Сингх) [фантастика, триллер, детектив, 2015] BDRip, Dub [Лицензия]

Dracon

417 | 42

18.8 ГБ

В этой теме нет новых непрочитанных сообщений. Вне/себя / Self/less (Тарсем Сингх) [фантастика, триллер, детектив, 2015] BDRip, Dub [Лицензия]

Dracon

22214 | 845

1.46 ГБ

В этой теме нет новых непрочитанных сообщений. Вне/себя / Self/less (Тарсем Сингх) [фантастика, триллер, детектив, 2015] BDRip 720p, Dub [Лицензия]

Dracon

2000 | 123

4.55 ГБ

В этой теме нет новых непрочитанных сообщений. Вне/себя / Self/less (Тарсем Сингх) [фантастика, триллер, детектив, 2015] BDRip 1080p, Dub [Лицензия]

Dracon

2997 | 238

7.76 ГБ

В этой теме нет новых непрочитанных сообщений. Вне/себя / Self/less (Тарсем Сингх) [Фантастика, триллер, детектив, 2015] BDRemux 1080i, Dub+Sub [Лицензия]

Dracon

420 | 35

17.3 ГБ

В этой теме нет новых непрочитанных сообщений. Вне/себя / Self/less (Тарсем Сингх) [фантастика, триллер, детектив, 2015] WEB-DLRip, Dub [iTunes]

Dracon

4313 | 2301

1.46 ГБ

В этой теме нет новых непрочитанных сообщений. Вне/себя / Self/less (Тарсем Сингх) [фантастика, триллер, детектив, 2015] WEB-DL 720p, Dub [iTunes]

Dracon

17232 | 1044

3.48 ГБ


Начать новую тему Ответить на тему  [ 1 сообщение ] 




Для Мосгорсуда, Роскомнадзора и рекламодателей:: mosgorsud-torrent[собачка]yandex.ru