Торрент файл
скачать торрент магнет ссылка Добавлен: 07 окт 2015, 11:44
Размер: 1.46 ГБ
Сидеров: 38
Личеров: 0
Статус: (salma3)
Автор

СообщениеДобавлено: 07 окт 2015, 11:44 

Не в сети
Супермодератор
Аватара пользователя
Дата регистрации:
15 фев 2012, 16:44
Возраст: 28
Спасибо: 6577 / 2143
Сообщения: 43949
За линией огня / Behind Enemy Lines

Год выпуска: 1997
Жанр: Боевик
Режиссер: Марк Гриффитс

В ролях: Томас Иэн Гриффит, Крис Малки, Марк Карлтон, Масхонд Ли, Хиллари Мэтьюз, Кортни Гейнс, Мори Стерлинг, Адам Дж., Крис Далуз, Дэйл Гибсон

Описание:
Фильм «За линией огня» отправляет нас в адское пламя вьетнамской войны. Здесь проявляются и самые низкие, и самые благородные качества человека. Здесь женщины дерутся наравне с мужчинами, здесь под пытками предают друзей. Но здесь еще не забыли, что такое честь… По заданию ЦРУ Вестон снова отправляется на вражескую территорию, но главная цель его возвращения — это найти пропавшего друга…



Страна: США, Филиппины
Продолжительность: 01:25:22
Перевод: Профессиональный [двухголосый]
Перевод: авторский [Кузнецов]

Файл
Качество: DVDRip
Формат файла: AVI
Видео кодек: XviD
Аудио кодек: AC3
Видео: 704x416 (1.69:1), 25 fps, XviD MPEG-4 ~1852 kbps avg, 0.25 bit/pixel
Аудио 1: 48 kHz, AC3 Dolby Digital, 2/0 (L,R) ch, ~192 kbps [русский]
Аудио 2: 48 kHz, AC3 Dolby Digital, 2/0 (L,R) ch, ~192 kbps [русский]
Аудио 3: 48 kHz, AC3 Dolby Digital, 2/0 (L,R) ch, ~192 kbps [английский]



Общее
Полное имя : D:ААА2За линией огня.avi
Формат : AVI
Формат/Информация : Audio Video Interleave
Размер файла : 1,46 Гбайт
Продолжительность : 1 ч. 25 м.
Общий поток : 2449 Кбит/сек
Программа кодирования : VirtualDubMod 1.5.10.2 (build 2540/release)
Библиотека кодирования : VirtualDubMod build 2540/release

Видео
Идентификатор : 0
Формат : MPEG-4 Visual
Профиль формата : Advanced Simple@L5
Параметр BVOP формата : 2
Параметр QPel формата : Нет
Параметр GMC формата : Без точки перехода
Параметр матрицы формата : Default (MPEG)
Режим смешивания : Сжатый битовый поток
Идентификатор кодека : XVID
Идентификатор кодека/Подсказка : XviD
Продолжительность : 1 ч. 25 м.
Битрейт : 1855 Кбит/сек
Ширина : 704 пикселя
Высота : 416 пикселей
Соотношение сторон : 1,692
Частота кадров : 25,000 кадров/сек
Цветовое пространство : YUV
Субдискретизация насыщенности : 4:2:0
Битовая глубина : 8 бит
Тип развёртки : Прогрессивная
Метод сжатия : С потерями
Бит/(Пиксели*Кадры) : 0.253
Размер потока : 1,11 Гбайт (76%)
Библиотека кодирования : XviD 1.2.1 (UTC 2008-12-04)

Аудио #1
Идентификатор : 1
Формат : AC-3
Формат/Информация : Audio Coding 3
Расширение режима : CM (complete main)
Параметр Endianness формата : Big
Идентификатор кодека : 2000
Продолжительность : 1 ч. 25 м.
Вид битрейта : Постоянный
Битрейт : 192 Кбит/сек
Каналы : 2 канала
Расположение каналов : Front: L R
Частота : 48,0 КГц
Битовая глубина : 16 бит
Метод сжатия : С потерями
Задержка видео : 24 мс.
Размер потока : 117 Мбайт (8%)
Выравнивание : Разделение по промежуткам
Продолжительность промежутка : 40 мс. (1,00 видеокадр)
Время предзагрузки промежутка : 500 мс.

Аудио #2
Идентификатор : 2
Формат : AC-3
Формат/Информация : Audio Coding 3
Расширение режима : CM (complete main)
Параметр Endianness формата : Big
Идентификатор кодека : 2000
Продолжительность : 1 ч. 25 м.
Вид битрейта : Постоянный
Битрейт : 192 Кбит/сек
Каналы : 2 канала
Расположение каналов : Front: L R
Частота : 48,0 КГц
Битовая глубина : 16 бит
Метод сжатия : С потерями
Задержка видео : 12 мс.
Размер потока : 117 Мбайт (8%)
Выравнивание : Разделение по промежуткам
Продолжительность промежутка : 40 мс. (1,00 видеокадр)
Время предзагрузки промежутка : 500 мс.

Аудио #3
Идентификатор : 3
Формат : AC-3
Формат/Информация : Audio Coding 3
Расширение режима : CM (complete main)
Параметр Endianness формата : Big
Идентификатор кодека : 2000
Продолжительность : 1 ч. 25 м.
Вид битрейта : Постоянный
Битрейт : 192 Кбит/сек
Каналы : 2 канала
Расположение каналов : Front: L R
Частота : 48,0 КГц
Битовая глубина : 16 бит
Метод сжатия : С потерями
Размер потока : 117 Мбайт (8%)
Выравнивание : Разделение по промежуткам
Продолжительность промежутка : 40 мс. (1,00 видеокадр)
Время предзагрузки промежутка : 500 мс.



Релиз:


_________________
Проголосуй за трекер Открытый торрент трекер - RUS-MEDIA.ORG

Проголосуй Открытый торрент трекер - RUS-MEDIA.ORG



реклама партнёра


Вернуться к началу
 Профиль Отправить личное сообщение  
 
   Похожие торренты   Автор   Торрент   Размер 
В этой теме нет новых непрочитанных сообщений. В тылу врага 2: Ось зла / Behind Enemy Lines 2: Axis Of Evil [Боевик, 2006] DVDRip-AVC, Dub

salma3

78 | 24

1.46 ГБ

В этой теме нет новых непрочитанных сообщений. В тылу врага / Behind Enemy Lines [Боевик, триллер, драма, военный, 2001] BDRip, Dub

salma3

105 | 32

2.18 ГБ

В этой теме нет новых непрочитанных сообщений. Остров огня / Island of fire [Боевик, драма, криминал, 1990] BDRip 1080p, Mvo+Avo+Sub

salma3

41 | 7

6.35 ГБ

В этой теме нет новых непрочитанных сообщений. На линии огня / In the Line of Fire [боевик, триллер, драма, криминал, детектив, 1993] BDRip 720p, Dub

salma3

47 | 10

7.75 ГБ

В этой теме нет новых непрочитанных сообщений. Под нами враг / The Enemy below [боевик, триллер, драма, 1957] BDRip, Dvo

salma3

80 | 8

1.45 ГБ

В этой теме нет новых непрочитанных сообщений. Враг мой / Enemy Mine [фантастика, боевик, драма, приключения, 1985] BDRip-AVC, Mvo

salma3

50 | 11

744.04 МБ

В этой теме нет новых непрочитанных сообщений. Пересекая черту / Crossing Lines [03x01-07 из 12] (Дэниэл Персивал, Эрик Валетт, Энди Уилсон) [2015, Боевик, драма, криминал, HDTVRip | Sony Turbo]

Dracon

126 | 35

3.14 ГБ


Начать новую тему Ответить на тему  [ 1 сообщение ] 




Для Мосгорсуда, Роскомнадзора и рекламодателей:: mosgorsud-torrent[собачка]yandex.ru