Торрент файл
скачать торрент магнет ссылка Добавлен: 26 сен 2015, 17:03
Размер: 2.5 ГБ
Сидеров: 184
Личеров: 3
Статус: (salma3)
Автор

СообщениеДобавлено: 26 сен 2015, 17:03 

Не в сети
Зам. Админа
Аватара пользователя
Дата регистрации:
02 дек 2010, 12:39
Спасибо: 12461 / 214
Сообщения: 27968
Год выхода: 2015
Жанр: Комедия
Режиссер: Даг Эллин
В ролях: Кевин Коннолли, Адриан Гренье, Кевин Диллон, Джерри Феррара, Джереми Пивен, Эммануэль Шрики, Хейли Джоэл Осмент, Ронда Раузи, Рекс Ли, Билли Боб Торнтон, Перри Ривз, Деби Мейзар, Рис Койро, Констанс Зиммер, Скотт Мескади, Алан Дэйл, Эмили Ратаковски, Нина Агдал, Лукас Эллин, Пирс Морган

О фильме:
Звезда кино Винс Чейз и его друзья бросают вызов капризному и зачастую жестокому миру Голливуда.


Страна: США
Студия: Closest to the Hole Productions, Entourage Holdings, Home Box Office (HBO), Leverage Entertainment, RatPac Entertainment, Warner Bros. Pictures
Продолжительность: 01:44:28
Перевод: Дублированный (BD CEE)

Кодек: MPEG-4 AVC
Качество: BDRip-AVC
Видео: 2650 Кбит/с, 1024x424
Звук: Русский, английский (AC3, 6 ch, 384 Кбит/с)
Субтитры: Русские, английские

Формат : Matroska
Версия формата : Version 2
Размер файла : 2,50 Гбайт
Продолжительность : 1 ч. 44 м.
Общий поток : 3421 Кбит/сек
Название фильма : Entourage.2015.x264.BDRip.AVC.Rus.Eng
Дата кодирования : UTC 2015-09-26 12:10:49
Программа кодирования : mkvmerge v7.9.0 ('Birds') 64bit
Библиотека кодирования : libebml v1.3.1 + libmatroska v1.4.2

Видео
Идентификатор : 1
Формат : AVC
Формат/Информация : Advanced Video Codec
Профиль формата : High@L4.1
Параметр CABAC формата : Да
Параметр ReFrames формата : 10 кадров
Идентификатор кодека : V_MPEG4/ISO/AVC
Продолжительность : 1 ч. 44 м.
Битрейт : 2650 Кбит/сек
Ширина : 1024 пикселя
Высота : 424 пикселя
Соотношение сторон : 2,40:1
Режим частоты кадров : Постоянный
Частота кадров : 23,976 кадра/сек
Цветовое пространство : YUV
Субдискретизация насыщенности : 4:2:0
Битовая глубина : 8 бит
Тип развёртки : Прогрессивная
Бит/(Пиксели*Кадры) : 0.255
Размер потока : 1,89 Гбайт (76%)
Заголовок : Entourage.2015.x264.BDRip.AVC.Rus.Eng.by.StarbirS
Библиотека кодирования : x264 core 148 r2597 e86f3a1
Настройки программы : cabac=1 / ref=10 / deblock=1:-3:-3 / analyse=0x3:0x113 / me=umh / subme=10 / psy=1 / psy_rd=1.05:0.00 / mixed_ref=1 / me_range=48 / chroma_me=1 / trellis=2 / 8x8dct=1 / cqm=0 / deadzone=21,11 / fast_pskip=0 / chroma_qp_offset=-2 / threads=12 / lookahead_threads=2 / sliced_threads=0 / nr=0 / decimate=0 / interlaced=0 / bluray_compat=0 / constrained_intra=0 / bframes=8 / b_pyramid=2 / b_adapt=2 / b_bias=0 / direct=3 / weightb=1 / open_gop=1 / weightp=2 / keyint=240 / keyint_min=23 / scenecut=40 / intra_refresh=0 / rc=2pass / mbtree=0 / bitrate=2650 / ratetol=1.0 / qcomp=0.70 / qpmin=0 / qpmax=69 / qpstep=4 / cplxblur=20.0 / qblur=0.5 / ip_ratio=1.40 / pb_ratio=1.30 / aq=2:0.90
Язык : English
Default : Да
Forced : Нет

Аудио #1
Идентификатор : 2
Формат : AC-3
Формат/Информация : Audio Coding 3
Расширение режима : CM (complete main)
Параметр Endianness формата : Big
Идентификатор кодека : A_AC3
Продолжительность : 1 ч. 44 м.
Вид битрейта : Постоянный
Битрейт : 384 Кбит/сек
Каналы : 6 каналов
Расположение каналов : Front: L C R, Side: L R, LFE
Частота : 48,0 КГц
Метод сжатия : С потерями
Размер потока : 287 Мбайт (11%)
Заголовок : Дублированный
Язык : Russian
Default : Да
Forced : Нет

Аудио #2
Идентификатор : 3
Формат : AC-3
Формат/Информация : Audio Coding 3
Расширение режима : CM (complete main)
Параметр Endianness формата : Big
Идентификатор кодека : A_AC3
Продолжительность : 1 ч. 44 м.
Вид битрейта : Постоянный
Битрейт : 384 Кбит/сек
Каналы : 6 каналов
Расположение каналов : Front: L C R, Side: L R, LFE
Частота : 48,0 КГц
Метод сжатия : С потерями
Размер потока : 287 Мбайт (11%)
Язык : English
Default : Нет
Forced : Нет

Текст #1
Идентификатор : 4
Формат : UTF-8
Идентификатор кодека : S_TEXT/UTF8
Идентификатор кодека/Информация : UTF-8 Plain Text
Язык : Russian
Default : Нет
Forced : Нет

Текст #2
Идентификатор : 5
Формат : UTF-8
Идентификатор кодека : S_TEXT/UTF8
Идентификатор кодека/Информация : UTF-8 Plain Text
Язык : English
Default : Нет
Forced : Нет

Меню
00:00:00.000 : en:00:00:00.000
00:10:33.258 : en:00:10:33.258
00:19:34.382 : en:00:19:34.382
00:29:54.167 : en:00:29:54.167
00:40:42.023 : en:00:40:42.023
00:50:23.145 : en:00:50:23.145
01:00:27.082 : en:01:00:27.082
01:09:51.062 : en:01:09:51.062
01:20:17.396 : en:01:20:17.396
01:30:42.228 : en:01:30:42.228
01:37:08.322 : en:01:37:08.322








реклама партнёра


Вернуться к началу
 Профиль  
 
   Похожие торренты   Автор   Торрент   Размер 
В этой теме нет новых непрочитанных сообщений. Антураж / Entourage (Даг Эллин) [комедия, 2015] BDRip, Dub [iTunes]

Dracon

8839 | 340

1.46 ГБ

В этой теме нет новых непрочитанных сообщений. Антураж / Entourage (Даг Эллин) [комедия, 2015] BDRip 720p, Dub [iTunes]

Dracon

3761 | 60

3.88 ГБ

В этой теме нет новых непрочитанных сообщений. Антураж / Entourage (Даг Эллин) [комедия, 2015] BDRip 720p, Dub+Sub [Лицензия]

Dracon

19 | 6

7.69 ГБ

В этой теме нет новых непрочитанных сообщений. Антураж / Entourage (Даг Эллин) [комедия, 2015] BDRip 1080p, Dub+Sub [Лицензия]

Dracon

28 | 3

15.21 ГБ

В этой теме нет новых непрочитанных сообщений. Антураж / Entourage (Даг Эллин) [комедия, 2015] Blu-Ray 1080p, Dub+Sub [Лицензия]

Dracon

31 | 11

34.11 ГБ

В этой теме нет новых непрочитанных сообщений. Антураж / Entourage (Даг Эллин) [комедия, 2015] WEB-DL 720p, dub [звук с TS]

Dracon

0 | 0

3.23 ГБ

В этой теме нет новых непрочитанных сообщений. Антураж / Entourage (Даг Эллин) [комедия, 2015] WEBRip, dub [звук с TS]

Dracon

4688 | 127

1.37 ГБ


Начать новую тему Ответить на тему  [ 1 сообщение ] 




Для Мосгорсуда, Роскомнадзора и рекламодателей:: mosgorsud-torrent[собачка]yandex.ru