Торрент файл
скачать торрент магнет ссылка Добавлен: 23 сен 2015, 20:11
Размер: 2.88 ГБ
Сидеров: 876
Личеров: 59
Статус: (salma3)
Автор

СообщениеДобавлено: 23 сен 2015, 20:11 

В сети
Супермодератор
Аватара пользователя
Дата регистрации:
15 фев 2012, 16:44
Возраст: 27
Спасибо: 5148 / 2090
Сообщения: 17545
Год выхода: 2015
Жанр: боевик, триллер
Режиссер: Стивен Рейнольдс
В ролях: Джонатан Гуд, Роджер Р. Кросс, Дэниэл Кадмор, Локлин Манро, Тай Олссон, Сара Смит, Ребекка Маршалл, Кирби Морроу, Samuel Smith, Тоби Левинс

О фильме:
Полицейский, который вернулся на службу оправившись от огнестрельного ранения, попадаёт опять в переплёт. Он обнаруживает улики незаконной деятельности своего бывшего партнера. Коррумпированные копы не остановятся ни перед чем, чтобы заполучить доказательства.



Выпущено: США / WWE Studios
Продолжительность: 01:30:12
Озвучивание: Любительское (одноголосое) [Петр Титов]

Файл
Формат: MKV
Качество: WEB-DL 720p
Видео: 3900 kb/s, 1280x718
Аудио: Russian: AC3, 192 kb/s (2 ch) / English: AC3, 384 kb/s (6 ch)
Субтитры: English
Format : Matroska
Format version : Version 4 / Version 2
File size : 2.88 GiB
Duration : 1h 30mn
Overall bit rate : 4 567 Kbps
Encoded date : UTC 2015-09-23 10:43:22
Writing application : mkvmerge v6.1.0 ('Old Devil') built on Mar 4 2013 09:10:42
Writing library : libebml v1.3.0 + libmatroska v1.4.0

Video
ID : 1
Format : AVC
Format/Info : Advanced Video Codec
Format profile : High@L3.1
Format settings, CABAC : No
Format settings, ReFrames : 2 frames
Codec ID : V_MPEG4/ISO/AVC
Duration : 1h 30mn
Bit rate : 3 900 Kbps
Width : 1 280 pixels
Height : 718 pixels
Display aspect ratio : 16:9
Frame rate mode : Constant
Frame rate : 23.976 fps
Color space : YUV
Chroma subsampling : 4:2:0
Bit depth : 8 bits
Scan type : Progressive
Bits/(Pixel*Frame) : 0.177
Stream size : 2.46 GiB (85%)
Language : English
Default : Yes
Forced : No
Color range : Limited
Color primaries : BT.709
Transfer characteristics : BT.709
Matrix coefficients : BT.709

Audio #1
ID : 2
Format : AC-3
Format/Info : Audio Coding 3
Mode extension : CM (complete main)
Format settings, Endianness : Big
Codec ID : A_AC3
Duration : 1h 30mn
Bit rate mode : Constant
Bit rate : 192 Kbps
Channel(s) : 2 channels
Channel positions : Front: L R
Sampling rate : 44.1 KHz
Bit depth : 16 bits
Compression mode : Lossy
Stream size : 124 MiB (4%)
Language : Russian
Default : Yes
Forced : No

Audio #2
ID : 3
Format : AC-3
Format/Info : Audio Coding 3
Mode extension : CM (complete main)
Format settings, Endianness : Big
Codec ID : A_AC3
Duration : 1h 30mn
Bit rate mode : Constant
Bit rate : 384 Kbps
Channel(s) : 6 channels
Channel positions : Front: L C R, Side: L R, LFE
Sampling rate : 48.0 KHz
Bit depth : 16 bits
Compression mode : Lossy
Stream size : 248 MiB (8%)
Language : English
Default : No
Forced : No

Text
ID : 4
Format : UTF-8
Codec ID : S_TEXT/UTF8
Codec ID/Info : UTF-8 Plain Text
Language : English
Default : No
Forced : No






_________________



реклама партнёра


Вернуться к началу
 Профиль Отправить личное сообщение  
 
   Похожие торренты   Автор   Торрент   Размер 
В этой теме нет новых непрочитанных сообщений. 12 раундов 3 / 12 Rounds 3: Lockdown [боевик, триллер, 2015] WEB-DLRip, Avo

salma3

2509 | 131

1.46 ГБ

В этой теме нет новых непрочитанных сообщений. Тварь / Alien Lockdown / Creature [Фантастика, боевик, триллер, 2004] DVDRip, Dvo

salma3

12 | 2

1.45 ГБ

В этой теме нет новых непрочитанных сообщений. 88 / 88 [боевик, триллер, 2015] BDRip 720p, Dvo

salma3

75 | 5

3.39 ГБ

В этой теме нет новых непрочитанных сообщений. 88 / 8888 / 88 (Эйприл Маллен) [триллер, боевик, 2015] WEB-DL 720p, dvo

Dracon

972 | 82

2.94 ГБ

В этой теме нет новых непрочитанных сообщений. Спираль / Helix [триллер, боевик, 2015] BDRip 720p, Mvo

salma3

150 | 45

4.17 ГБ

В этой теме нет новых непрочитанных сообщений. Отбросы / The Throwaways (Тони Буи) [фэнтези, боевик, триллер, 2015] WEB-DL 720p, Mvo

Dracon

798 | 40

2.89 ГБ

В этой теме нет новых непрочитанных сообщений. Конвергениция / Convergence [Боевик, триллер, детектив, 2015] BDRip 720p, Mvo

salma3

1112 | 101

4.12 ГБ


Начать новую тему Ответить на тему  [ 1 сообщение ] 




Для Мосгорсуда, Роскомнадзора и рекламодателей:: mosgorsud-torrent[собачка]yandex.ru