Торрент файл
скачать торрент магнет ссылка Добавлен: 21 сен 2015, 23:19
Размер: 1.46 ГБ
Сидеров: 26
Личеров: 2
Статус: (salma3)
Автор

СообщениеДобавлено: 21 сен 2015, 23:19 

Не в сети
Супермодератор
Аватара пользователя
Дата регистрации:
15 фев 2012, 16:44
Возраст: 27
Спасибо: 5143 / 2090
Сообщения: 17514
Как рыбка без воды / Like a fish out of water

Год выхода: 1999
Жанр: Триллер, Комедия, Криминал
Режиссер: Эрве Адмар

В ролях: Мишель Мюллер (II), Моника Беллуччи, Чеки Карио, Доминик Пинон, Мехмет Улусой, Жозе Гарсиа, Беатрис Пальм, Карин Нурис, Оливье Эрве, Жерар Измаэль, Надин Верон, Андре Пусс, Зирек,

О фильме:
Cын владельца крупного ресторана, богатый аквариумист Дезире имеет в своей коллекции две редкие и очень ценные рыбки, с которыми он никогда не расстается и повсюду возит с собой в специальном аквариуме. О существовании столь ценных экземпляров прознали мошенники - роковая красотка и два мафиози, мечтающие разбогатеть. Дезире оказывается втянутым в тщательно продуманный преступный сценарий красотки Мервиль и ее друзей. Их цель — обобрать богатого коллекционера. Но Дезире начинает подозревать подвох, и события принимают совершенно неожиданный оборот...



Страна: Франция
Продолжительность: 01:22:33
Перевод: Профессиональный (многоголосый, закадровый)

Файл
Качество: DVDRip
Формат файла: AVI
Видео кодек: XviD
Аудио кодек: AC3
Видео: 720x304, 25,000 fps, 2071 kbps
Звук: AC3, 6 ch, 448.0 kbps, 48.0 kHz


Общее
Полное имя : Like.a.fish.out.of.water.1999.DVDRip.avi
Формат : AVI
Формат/Информация : Audio Video Interleave
Размер файла : 1,46 Гбайт
Продолжительность : 1 ч. 22 м.
Общий поток : 2528 Кбит/сек
Программа кодирования : VirtualDubMod 1.5.10.3 | http://www.virtualdub-fr.org || (build 2550/release)
Библиотека кодирования : VirtualDubMod build 2550/release

Видео
Идентификатор : 0
Формат : MPEG-4 Visual
Профиль формата : Advanced Simple@L5
Параметр BVOP формата : 1
Параметр QPel формата : Нет
Параметр GMC формата : Без точки перехода
Параметр матрицы формата : Выборочная
Идентификатор кодека : XVID
Идентификатор кодека/Подсказка : XviD
Продолжительность : 1 ч. 22 м.
Битрейт : 2071 Кбит/сек
Ширина : 720 пикс.
Высота : 304 пикс.
Соотношение сторон : 2,35:1
Частота кадров : 25,000 кадр/сек
Цветовое пространство : YUV
Подвыборка цветности : 4:2:0
Битовая глубина : 8 бит
Тип развёртки : Прогрессивная
Метод сжатия : С потерями
Бит/(Пиксели*Кадры) : 0.378
Размер потока : 1,19 Гбайт (82%)
Библиотека кодирования : XviD 73

Аудио
Идентификатор : 1
Формат : AC-3
Формат/Информация : Audio Coding 3
Расширение режима : CM (complete main)
Идентификатор кодека : 2000
Продолжительность : 1 ч. 22 м.
Вид битрейта : Постоянный
Битрейт : 448 Кбит/сек
Канал(ы) : 6 канала(ов)
Расположение каналов : Front: L C R, Side: L R, LFE
Частота : 48,0 КГц
Битовая глубина : 16 бит
Метод сжатия : С потерями
Размер потока : 265 Мбайт (18%)
Выравнивание : Разделение по промежуткам
Продолжительность промежутка : 40 мс. (1,00 видеокадр)
Время предзагрузки промежутка : 500 ms


Релиз от: Leon-masl


_________________



реклама партнёра


Вернуться к началу
 Профиль Отправить личное сообщение  
 
   Похожие торренты   Автор   Торрент   Размер 
В этой теме нет новых непрочитанных сообщений. Маленькая рыбка / Little Fish [Триллер, драма, мелодрама, криминал, 2005] DVDRip, Dvo

salma3

14 | 4

1.45 ГБ

В этой теме нет новых непрочитанных сообщений. Круг чистой воды / Ring of Bright Water [драма, комедия, семейный, 1969] DVDRip, Avo+Sub

salma3

12 | 4

1.47 ГБ

В этой теме нет новых непрочитанных сообщений. Просто добавь воды / Just Add Water [Мелодрама, комедия, 2007] BDRip 720p, Mvo

salma3

0 | 0

4.37 ГБ

В этой теме нет новых непрочитанных сообщений. Надувательство / Shooting Fish [мелодрама, комедия, криминал, 1997] DVDRip, Mvo

salma3

0 | 0

1.46 ГБ

В этой теме нет новых непрочитанных сообщений. Лето белой воды / White Water Summer [драма, приключения, 1987] WEB-DL 720p, Mvo

salma3

14 | 4

3.23 ГБ

В этой теме нет новых непрочитанных сообщений. Искатель воды / The Water Diviner (Рассел Кроу) [Военный, Драма, 2014] HDRip, Dub [iTunes]

Dracon

140 | 5

1.46 ГБ

В этой теме нет новых непрочитанных сообщений. Искатель воды / The Water Diviner (Рассел Кроу) [Военный, Драма, 2014] HDRip-AVC, Dub [iTunes]

Dracon

56 | 2

1.61 ГБ


Начать новую тему Ответить на тему  [ 1 сообщение ] 




Для Мосгорсуда, Роскомнадзора и рекламодателей:: mosgorsud-torrent[собачка]yandex.ru