Торрент файл
скачать торрент магнет ссылка Добавлен: 15 сен 2015, 21:10
Размер: 1.94 ГБ
Сидеров: 4110
Личеров: 149
Статус: (salma3)
Автор

СообщениеДобавлено: 15 сен 2015, 21:10 

Не в сети
Зам. Админа
Аватара пользователя
Дата регистрации:
02 дек 2010, 12:39
Спасибо: 12461 / 214
Сообщения: 27968
Год выхода: 2015
Жанр: мелодрама, комедия
Режиссер: Джудд Апатоу
В ролях:Эми Бет Шумер, Билл Хейдер, Бри Ларсон, Колин Куинн, Джон Сина, Ванесса Байер, Майк Бирбиглия, Эзра Миллер, Дэйв Аттелль, Тильда Суинтон

О фильме: У симпатичной девушки Эми никогда не было серьезных отношений. Она придерживается свободных взглядов и обычно не ходит дважды с одним парнем на свидание. Будучи сотрудницей крупного мужского издания, она получает задание от шефа написать статью о спортивном враче Ароне. Эми и не рассчитывала, что деловая встреча с доктором изменит ее жизнь.
Выпущено: США / Davis Entertainment, RatPac-Dune Entertainment, Warner Bros
Продолжительность: 02:04:38
Озвучивание: Дублированное [Звук с TS]
Примечание: Присутствуют вшитые неотключаемые корейские субтитры!

Формат: MKV
Качество: WEBRip 720p
Видео: 1846 kb/s, 1280x480
Аудио: Russian / English: AC3, 192 kb/s (2 ch)
Размер: 1.94 GB


General
Unique ID : 253668784043324880122361021999097103801 (0xBED6D4A9B52B2AABA17E4AAA33F0C5B9)
Complete name : C:UsersuserDesktopDeVu6ka.Be3.K0mp1ek7ov.2015.Dt.WEBRip.720p.ELEKTRI4KA.mkv
Format : Matroska
Format version : Version 4 / Version 2
File size : 1.94 GiB
Duration : 2h 4mn
Overall bit rate : 2 232 Kbps
Movie name : DeVu6ka.Be3.K0mp1ek7ov.2015.Dt.WEBRip.720p.ELEKTRI4KA.uniongang.tv
Encoded date : UTC 2015-09-14 18:30:09
Writing application : mkvmerge v8.3.0 ('Over the Horizon') 64bit
Writing library : libebml v1.3.1 + libmatroska v1.4.2
DURATION : 02:04:38.624000000
NUMBER_OF_FRAMES : 233707
NUMBER_OF_BYTES : 179486976
_STATISTICS_WRITING_APP : mkvmerge v8.3.0 ('Over the Horizon') 64bit
_STATISTICS_WRITING_DATE_UTC : 2015-09-14 18:30:09
_STATISTICS_TAGS : BPS DURATION NUMBER_OF_FRAMES NUMBER_OF_BYTES

Video
ID : 1
Format : AVC
Format/Info : Advanced Video Codec
Format profile : Main@L3.1
Format settings, CABAC : Yes
Format settings, ReFrames : 4 frames
Codec ID : V_MPEG4/ISO/AVC
Bit rate : 1 846 Kbps
Width : 1 280 pixels
Height : 480 pixels
Display aspect ratio : 2.667
Frame rate mode : Variable
Color space : YUV
Chroma subsampling : 4:2:0
Bit depth : 8 bits
Scan type : Progressive
Title : DeVu6ka.Be3.K0mp1ek7ov.2015.Dt.WEBRip.720p.ELEKTRI4KA.uniongang.tv
Writing library : x264 core 112
Encoding settings : cabac=1 / ref=2 / deblock=1:0:0 / analyse=0x1:0x111 / me=hex / subme=6 / psy=1 / psy_rd=1.00:0.00 / mixed_ref=0 / me_range=16 / chroma_me=1 / trellis=0 / 8x8dct=0 / cqm=0 / deadzone=21,11 / fast_pskip=1 / chroma_qp_offset=-2 / threads=12 / sliced_threads=0 / nr=0 / decimate=1 / interlaced=0 / constrained_intra=0 / bframes=2 / b_pyramid=2 / b_adapt=1 / b_bias=0 / direct=1 / weightb=0 / open_gop=0 / weightp=2 / keyint=240 / keyint_min=23 / scenecut=40 / intra_refresh=0 / rc_lookahead=40 / rc=2pass / mbtree=1 / bitrate=1846 / ratetol=1.0 / qcomp=0.60 / qpmin=3 / qpmax=51 / qpstep=4 / cplxblur=20.0 / qblur=0.5 / ip_ratio=1.40 / aq=1:1.00
Language : English
Default : Yes
Forced : No
Color range : Limited
Color primaries : BT.709
Transfer characteristics : BT.709
Matrix coefficients : BT.709

Audio #1
ID : 2
Format : AC-3
Format/Info : Audio Coding 3
Mode extension : CM (complete main)
Format settings, Endianness : Big
Codec ID : A_AC3
Duration : 2h 4mn
Bit rate mode : Constant
Bit rate : 192 Kbps
Channel(s) : 2 channels
Channel positions : Front: L R
Sampling rate : 48.0 KHz
Compression mode : Lossy
Stream size : 171 MiB (9%)
Title : DeVu6ka.Be3.K0mp1ek7ov.2015.Dt.WEBRip.720p.ELEKTRI4KA.uniongang.tv [kolbas]
Language : Russian
Default : Yes
Forced : No

Audio #2
ID : 3
Format : AC-3
Format/Info : Audio Coding 3
Mode extension : CM (complete main)
Format settings, Endianness : Big
Codec ID : A_AC3
Duration : 2h 4mn
Bit rate mode : Constant
Bit rate : 192 Kbps
Channel(s) : 2 channels
Channel positions : Front: L R
Sampling rate : 48.0 KHz
Compression mode : Lossy
Stream size : 171 MiB (9%)
Title : DeVu6ka.Be3.K0mp1ek7ov.2015.Dt.WEBRip.720p.ELEKTRI4KA.uniongang.tv
Language : English
Default : No
Forced : No







реклама партнёра


Вернуться к началу
 Профиль  
 
   Похожие торренты   Автор   Торрент   Размер 
В этой теме нет новых непрочитанных сообщений. Девушка без комплексов / Trainwreck (Джудд Апатоу) [мелодрама, комедия, 2015] BDRip 720p, Dub [iTunes | Театральная Версия]

Dracon

707 | 51

5.59 ГБ

В этой теме нет новых непрочитанных сообщений. Девушка без комплексов / Trainwreck (Джудд Апатоу) [мелодрама, комедия, 2015] HDRip, Dub [iTunes | Театральная Версия]

Dracon

2976 | 226

2.05 ГБ

В этой теме нет новых непрочитанных сообщений. Девушка без комплексов / Trainwreck (Джудд Апатоу) [мелодрама, комедия, 2015] HDRip, Dub [iTunes | Театральная Версия]

Dracon

12416 | 1031

1.45 ГБ

В этой теме нет новых непрочитанных сообщений. Девушка без комплексов / Trainwreck (Джудд Апатоу) [мелодрама, комедия, 2015] BD-Remux, Dub [iTunes | Театральная Версия]

Dracon

181 | 62

22.57 ГБ

В этой теме нет новых непрочитанных сообщений. Фокус / Focus (Гленн Фикарра, Джон Рекуа) [драма, мелодрама, комедия, криминал, 2015] WEBRip 720p, dub [Чистый звук]

Dracon

595 | 42

2.27 ГБ

В этой теме нет новых непрочитанных сообщений. Пиксели / Pixels (Крис Коламбус) [фантастика, боевик, комедия, 2015] WEBRip 720p, dub [звук с TS]

slawa4155

231 | 1

4.38 ГБ

В этой теме нет новых непрочитанных сообщений. Ужастики / Goosebumps (Роб Леттерман) [фэнтези, комедия, приключения, 2015] WEBRip 720p, dub [Чистый звук]

Dracon

696 | 11

3.38 ГБ


Начать новую тему Ответить на тему  [ 1 сообщение ] 




Для Мосгорсуда, Роскомнадзора и рекламодателей:: mosgorsud-torrent[собачка]yandex.ru