Торрент файл
скачать торрент магнет ссылка Добавлен: 13 сен 2015, 15:32
Размер: 1.46 ГБ
Сидеров: 72
Личеров: 5
Статус: (salma3)
Автор

СообщениеДобавлено: 13 сен 2015, 15:32 

Не в сети
Супермодератор
Аватара пользователя
Дата регистрации:
15 фев 2012, 16:44
Возраст: 28
Спасибо: 6579 / 2143
Сообщения: 43992
Саботаж / Sabotage

Год выхода: 1996
Жанр: Боевик, триллер, драма
Режиссер: Тибор Такач

В ролях: Марк Дакаскос, Кэрри-Энн Мосс, Тони Тодд, Грэм Грин, Джон Невилл, Джеймс Пёрселл, Сара Розен Фруитман, Ричард Култер, Хайди фон Паллеске, Джон Пол Янг и др.

О фильме:
Бывший морской пехотинец Майк Бишоп участвует в провальной операции по спасению заложников. Получив 7 ранений от руки профессионального убийцы, Бишоп чудом остается жив... Несколько лет спустя семья, в которой Бишоп работает телохранителем, становится жертвой того же убийцы. Объединившись со спецагентом ФБР, Бишоп вступает в смертельную схватку с суперкиллером, и ничьей в этой борьбе быть не может...



Страна: Канада
Продолжительность: 01:39:28
Перевод: Профессиональный (двухголосый закадровый) [R5]

Файл
Качество: BDRip
Формат файла: AVI
Видео кодек: XviD
Аудио кодек: AC3
Видео: 704x400, 23.976 fps, 1712 kbps
Звук: 48 kHz, AC3, 3/2 (L,C,R,l,r) + LFE ch, ~384 kbps


Общее
Полное имя : Sabotage.1996.BDRip.avi
Формат : AVI
Формат/Информация : Audio Video Interleave
Размер файла : 1,46 Гбайт
Продолжительность : 1 ч. 39 м.
Общий поток : 2106 Кбит/сек
Программа кодирования : VirtualDubMod 1.5.10.3 | http://www.virtualdub-fr.org || (build 2550/release)
Библиотека кодирования : VirtualDubMod build 2550/release

Видео
Идентификатор : 0
Формат : MPEG-4 Visual
Профиль формата : Advanced Simple@L5
Параметр BVOP формата : 1
Параметр QPel формата : Нет
Параметр GMC формата : Без точки перехода
Параметр матрицы формата : Выборочная
Идентификатор кодека : XVID
Идентификатор кодека/Подсказка : XviD
Продолжительность : 1 ч. 39 м.
Битрейт : 1712 Кбит/сек
Ширина : 704 пикс.
Высота : 400 пикс.
Соотношение сторон : 16:9
Частота кадров : 23,976 кадр/сек
Цветовое пространство : YUV
Подвыборка цветности : 4:2:0
Битовая глубина : 8 бит
Тип развёртки : Прогрессивная
Метод сжатия : С потерями
Бит/(Пиксели*Кадры) : 0.254
Размер потока : 1,19 Гбайт (81%)
Библиотека кодирования : XviD 73

Аудио
Идентификатор : 1
Формат : AC-3
Формат/Информация : Audio Coding 3
Расширение режима : CM (complete main)
Идентификатор кодека : 2000
Продолжительность : 1 ч. 39 м.
Вид битрейта : Постоянный
Битрейт : 384 Кбит/сек
Канал(ы) : 6 канала(ов)
Расположение каналов : Front: L C R, Side: L R, LFE
Частота : 48,0 КГц
Битовая глубина : 16 бит
Метод сжатия : С потерями
Размер потока : 273 Мбайт (18%)
Выравнивание : Разделение по промежуткам
Продолжительность промежутка : 42 мс. (1,00 видеокадр)
Время предзагрузки промежутка : 500 ms

Релиз от: Leon-masl


_________________
Проголосуй за трекер Открытый торрент трекер - RUS-MEDIA.ORG

Проголосуй Открытый торрент трекер - RUS-MEDIA.ORG



реклама партнёра


Вернуться к началу
 Профиль Отправить личное сообщение  
 
   Похожие торренты   Автор   Торрент   Размер 
В этой теме нет новых непрочитанных сообщений. Саботаж / Sabotage [Боевик, триллер, драма, 1996] BDRip 720p, Dvo

salma3

59 | 2

3.39 ГБ

В этой теме нет новых непрочитанных сообщений. Первый удар / First Strike [боевик, триллер, драма, 1996] BDRip 1080p, Mvo

salma3

11 | 4

8.81 ГБ

В этой теме нет новых непрочитанных сообщений. Стиратель / Eraser [Боевик, триллер, драма, 1996] BDRip-HEVC 1080p, Dub

salma3

28 | 5

5.32 ГБ

В этой теме нет новых непрочитанных сообщений. Первый удар / First Strike [боевик, триллер, драма, 1996] BDRip 720p, Mvo+Dvo+Avo+Sub

salma3

51 | 15

3.53 ГБ

В этой теме нет новых непрочитанных сообщений. Смерч / Twister [боевик, триллер, драма, приключения, 1996] BDRip 720p, Dub

salma3

21 | 2

5.39 ГБ

В этой теме нет новых непрочитанных сообщений. Замена / The Substitute [боевик, триллер, драма, криминал, 1996] BDRip 1080p, Mvo+Dvo+Avo+Sub

salma3

24 | 7

9.92 ГБ

В этой теме нет новых непрочитанных сообщений. Под прицелом / Silent Trigger [боевик, триллер, драма, 1996] BDRip 720p, 2Dvo+Avo+Sub

salma3

50 | 4

7.67 ГБ


Начать новую тему Ответить на тему  [ 1 сообщение ] 




Для Мосгорсуда, Роскомнадзора и рекламодателей:: mosgorsud-torrent[собачка]yandex.ru