Автор

СообщениеДобавлено: 01 сен 2015, 09:00 

Не в сети
Зам. Админа
Аватара пользователя
Дата регистрации:
02 дек 2010, 08:39
Торренты: 13632
Раздал: 905.89 ТБ 
Скачал: 247.23 ТБ 
Ратио: 3.664
Спасибо: 12458 / 214
Сообщения: 27968
Год выпуска: 2015
Жанр: Драма, спорт, боевик, триллер
Выпущено: США, Escape Artists, Fuqua Films, Riche Productions
Режиссер: Антуан Фукуа
В ролях: Джейк Джилленхол, Рэйчел МакАдамс, Форест Уайтейкер, Наоми Харрис, Фифти Сент, Мигель Гомес, Бо Напп, Клер Фоли, Виктор Ортиц, Оона Лоренс, Скайлан Брукс, Доминик Колон, Дэвид Уэйлен, Адам Рэтклифф, Мишель Джонстон
О фильме: У боксера Билли Хоупа все было прекрасно: звание чемпиона, красавица-жена и любимая дочка. Но фортуна отворачивается от него: при трагических обстоятельствах погибает любимая жена, дисквалификация на ринге, нулевые доходы, суд лишает его родительских прав… Хоуп должен отстоять звание чемпиона и вернуть дочь. Есть ли у Хоупа шансы на победу? Все решит его знаменитый хук левой…

Качество: WEB-DLRip (AVC)
Видео: MPEG-4 AVC, 2222 Кбит/с, 1024x426, 25 кадр/с
Аудио: Русский (AC3, 6 ch, 384 Кбит/с)
Размер: 2.16 ГБ
Продолжительность: 01:58:37
Перевод: Дублированный (iTunes Russia)
Сохранены оригинальные чаптеры как на исходном WEB-DL.
x264 [info]: frame I:1574 Avg QP:15.74 size: 61971
x264 [info]: frame P:50142 Avg QP:18.75 size: 20699
x264 [info]: frame B:126202 Avg QP:20.46 size: 6664
x264 [info]: consecutive B-frames: 4.0% 6.9% 10.3% 57.9% 8.8% 9.8% 1.0% 0.7% 0.3% 0.3%
x264 [info]: mb I I16..4: 11.4% 64.4% 24.2%
x264 [info]: mb P I16..4: 1.2% 15.2% 2.1% P16..4: 29.5% 34.0% 9.9% 2.9% 0.2% skip: 5.0%
x264 [info]: mb B I16..4: 0.2% 1.6% 0.3% B16..8: 32.2% 22.3% 3.9% direct: 6.3% skip:33.3% L0:38.5% L1:45.7% BI:15.8%
x264 [info]: 8x8 transform intra:79.5% inter:53.0%
x264 [info]: direct mvs spatial:97.2% temporal:2.8%
x264 [info]: coded y,uvDC,uvAC intra: 88.0% 90.1% 69.5% inter: 22.8% 24.4% 14.3%
x264 [info]: i16 v,h,dc,p: 18% 11% 8% 63%
x264 [info]: i8 v,h,dc,ddl,ddr,vr,hd,vl,hu: 10% 9% 7% 9% 12% 12% 13% 13% 15%
x264 [info]: i4 v,h,dc,ddl,ddr,vr,hd,vl,hu: 13% 12% 5% 8% 14% 13% 13% 10% 12%
x264 [info]: i8c dc,h,v,p: 43% 21% 17% 19%
x264 [info]: Weighted P-Frames: Y:10.8% UV:6.6%
x264 [info]: ref P L0: 51.6% 9.0% 19.0% 6.1% 4.9% 3.1% 2.9% 1.5% 1.6% 0.4% 0.1%
x264 [info]: ref B L0: 81.1% 10.1% 3.8% 2.0% 1.2% 1.0% 0.6% 0.3%
x264 [info]: ref B L1: 95.9% 4.1%
x264 [info]: kb/s:2221.73
Общее
Уникальный идентификатор : 238661274807106991044249942004716761162 (0xB38C7D54918D3B919068C195EA27704A)
Полное имя : D:ЗагрузкиRIPSouthpaw.2015.x264.WEB-DLRip.(AVC).ExKinoRay.mkv
Формат : Matroska
Версия формата : Version 2
Размер файла : 2,16 Гбайт
Продолжительность : 1 ч. 58 м.
Общий поток : 2608 Кбит/сек
Название фильма : Левша.2015.Rip by: ollan
Дата кодирования : UTC 2015-09-01 00:26:13
Программа кодирования : mkvmerge v5.6.0 ('Kenya Kane') built on May 27 2012 16:44:04
Библиотека кодирования : libebml v1.2.3 + libmatroska v1.3.0

Видео
Идентификатор : 1
Формат : AVC
Формат/Информация : Advanced Video Codec
Профиль формата : High@L4.1
Параметр CABAC формата : Да
Параметр ReFrames формата : 9 кадров
Идентификатор кодека : V_MPEG4/ISO/AVC
Продолжительность : 1 ч. 58 м.
Битрейт : 2222 Кбит/сек
Ширина : 1024 пикселя
Высота : 426 пикселей
Соотношение сторон : 2,40:1
Режим частоты кадров : Постоянный
Частота кадров : 25,000 кадров/сек
Цветовое пространство : YUV
Субдискретизация насыщенности : 4:2:0
Битовая глубина : 8 бит
Тип развёртки : Прогрессивная
Бит/(Пиксели*Кадры) : 0.204
Размер потока : 1,80 Гбайт (83%)
Библиотека кодирования : x264 core 125 r2200 999b753
Настройки программы : cabac=1 / ref=9 / deblock=1:-3:-3 / analyse=0x3:0x133 / me=umh / subme=11 / psy=1 / psy_rd=1.00:0.10 / mixed_ref=1 / me_range=32 / chroma_me=1 / trellis=2 / 8x8dct=1 / cqm=0 / deadzone=21,11 / fast_pskip=0 / chroma_qp_offset=-3 / threads=12 / lookahead_threads=2 / sliced_threads=0 / nr=0 / decimate=0 / interlaced=0 / bluray_compat=0 / constrained_intra=0 / bframes=9 / b_pyramid=2 / b_adapt=2 / b_bias=0 / direct=3 / weightb=1 / open_gop=0 / weightp=2 / keyint=250 / keyint_min=25 / scenecut=40 / intra_refresh=0 / rc=2pass / mbtree=0 / bitrate=2222 / ratetol=1.0 / qcomp=0.60 / qpmin=0 / qpmax=69 / qpstep=4 / cplxblur=20.0 / qblur=0.5 / ip_ratio=1.40 / pb_ratio=1.30 / aq=1:1.00
Язык : English
Default : Да
Forced : Нет

Аудио
Идентификатор : 2
Формат : AC-3
Формат/Информация : Audio Coding 3
Расширение режима : CM (complete main)
Параметр Endianness формата : Big
Идентификатор кодека : A_AC3
Продолжительность : 1 ч. 58 м.
Вид битрейта : Постоянный
Битрейт : 384 Кбит/сек
Каналы : 6 каналов
Расположение каналов : Front: L C R, Side: L R, LFE
Частота : 48,0 КГц
Битовая глубина : 16 бит
Метод сжатия : С потерями
Размер потока : 326 Мбайт (15%)
Заголовок : Дублированный (iTunes Russia)
Язык : Russian
Default : Да
Forced : Нет

Меню
00:00:00.000 : en:Chapter 01
00:08:27.000 : en:Chapter 02
00:19:11.000 : en:Chapter 03
00:29:22.000 : en:Chapter 04
00:38:07.000 : en:Chapter 05
00:47:06.000 : en:Chapter 06
00:57:02.000 : en:Chapter 07
01:08:03.000 : en:Chapter 08
01:18:25.000 : en:Chapter 09
01:29:27.000 : en:Chapter 10
01:35:17.000 : en:Chapter 11
01:47:37.000 : en:Chapter 12
01:54:46.000 : en:Chapter 13









реклама партнёра


Вернуться к началу
 Профиль  
 
   Похожие торренты   Автор   Торрент   Размер 
В этой теме нет новых непрочитанных сообщений. Левша / Southpaw (Антуан Фукуа) [Драма, спорт, боевик, триллер, 2015] HDRip, Dub [iTunes]

Dracon

259 | 4

2.05 ГБ

В этой теме нет новых непрочитанных сообщений. Левша / Southpaw (Антуан Фукуа) [Драма, спорт, боевик, триллер, 2015] HDRip, Dub [iTunes]

Dracon

1787 | 113

1.37 ГБ

В этой теме нет новых непрочитанных сообщений. Левша / Southpaw (Антуан Фукуа) [Драма, спорт, боевик, триллер, 2015] BDRip 1080p, Dub [iTunes]

Dracon

174 | 19

9.07 ГБ

В этой теме нет новых непрочитанных сообщений. Левша / Southpaw (Антуан Фукуа) [Драма, спорт, боевик, триллер, 2015] BDRip 720p, Dub [iTunes]

Dracon

217 | 25

5.8 ГБ

В этой теме нет новых непрочитанных сообщений. Левша / Southpaw (Антуан Фукуа) [2015, Драма, спорт, боевик, триллер, BDRip-AVC | Чадов] avo

Dracon

161 | 14

2.42 ГБ

В этой теме нет новых непрочитанных сообщений. Великий уравнитель / The Equalizer (Антуан Фукуа) [2014, Боевик, триллер, криминал, ВDRip-AVC1080p] [Dub] [ Лицензия]

Враг Нароода

23 | 3

7.21 ГБ

В этой теме нет новых непрочитанных сообщений. Непобедимый Мэнни Пакьяо / Kid Kulafu [драма, биография, спорт, 2015] WEB-DLRip-AVC, Dub [iTunes]

salma3

306 | 42

1.46 ГБ


 [ 1 сообщение ] 




Для Мосгорсуда, Роскомнадзора и рекламодателей:: mosgorsud-torrent[собачка]yandex.ru